<?xml version="1.0" standalone="no"?>
<!DOCTYPE svg PUBLIC "-//W3C//DTD SVG 1.1//EN" "http://www.w3.org/Graphics/SVG/1.1/DTD/svg11.dtd" >
<svg xmlns="http://www.w3.org/2000/svg">
<metadata></metadata>
<defs>
<font id="immenhausenregular" horiz-adv-x="1193" >
<font-face units-per-em="2048" ascent="1434" descent="-614" />
<missing-glyph horiz-adv-x="481" />
<glyph unicode="&#xfb01;" horiz-adv-x="1001" d="M63 836v168h64v106q0 63 11 110t37.5 87t76.5 61t123 21q54 0 135 -19v-156q-14 7 -47 7q-103 -8 -103 -136v-81h506v-750q0 -51 10.5 -69.5t47.5 -28.5v-156h-351v156q37 10 47.5 28.5t10.5 69.5v483q0 61 -15 80t-65 19h-191v-582q2 -51 12.5 -69.5t47.5 -28.5v-156 h-350v156q37 10 47 28.5t10 69.5v582h-64zM594 1249q0 60 38.5 97.5t98.5 37.5t98.5 -37.5t38.5 -97.5q0 -62 -39 -100.5t-98 -38.5q-61 0 -99 37.5t-38 101.5z" />
<glyph unicode="&#xfb02;" horiz-adv-x="999" d="M63 836v168h64v79q0 141 77.5 223.5t239.5 82.5q94 0 197 -23h221v-1112q0 -50 11 -69t49 -29v-156h-351v156q38 10 49 29t11 69v866q0 25 -3.5 40t-14.5 31.5t-36 24t-65 7.5q-81 0 -116.5 -39t-35.5 -117v-63h148v-168h-148v-582q2 -51 12.5 -69.5t47.5 -28.5v-156 h-350v156q37 10 47 28.5t10 69.5v582h-64z" />
<glyph unicode="&#xfb03;" horiz-adv-x="1505" d="M63 836v168h64v83q0 152 76 227t215 75q75 0 162 -23v-152q-32 7 -58 7q-162 0 -162 -179v-38h271v106q0 62 11.5 110t38.5 87.5t77.5 60.5t122.5 21q54 0 133 -23v-152q-14 7 -47 7q-101 -8 -101 -136v-81h504v-750q0 -51 10 -69.5t47 -28.5v-156h-350v156q38 10 49 29 t11 69v483q0 61 -15 80t-67 19h-189v-582q0 -51 10.5 -69.5t47.5 -28.5v-156h-349v156q36 10 46 28.5t10 69.5v582h-271v-582q2 -51 12.5 -69.5t47.5 -28.5v-156h-350v156q37 10 47 28.5t10 69.5v582h-64zM1100 1249q0 60 38.5 97.5t98.5 37.5q59 0 98 -38t39 -97 q0 -62 -39 -100.5t-98 -38.5q-61 0 -99 37.5t-38 101.5z" />
<glyph unicode="&#xfb04;" horiz-adv-x="1503" d="M63 836v168h64v83q0 152 76 227t215 75q75 0 162 -23v-152q-32 7 -58 7q-162 0 -162 -179v-38h271v81q0 141 79 222.5t236 81.5q91 0 197 -23h225v-1112q0 -51 10 -69.5t47 -28.5v-156h-350v156q38 10 49 29t11 69v866q0 25 -3 40t-14 31.5t-36 24t-66 7.5 q-81 0 -115.5 -39t-34.5 -117v-63h146v-168h-146v-582q0 -51 10.5 -69.5t47.5 -28.5v-156h-349v156q36 10 46 28.5t10 69.5v582h-271v-582q2 -51 12.5 -69.5t47.5 -28.5v-156h-350v156q37 10 47 28.5t10 69.5v582h-64z" />
<glyph horiz-adv-x="0" />
<glyph horiz-adv-x="0" />
<glyph horiz-adv-x="682" />
<glyph unicode="&#xd;" horiz-adv-x="682" />
<glyph unicode=" "  horiz-adv-x="481" />
<glyph unicode="&#x09;" horiz-adv-x="481" />
<glyph unicode="&#xa0;" horiz-adv-x="481" />
<glyph unicode="!" horiz-adv-x="538" d="M127 1260q0 131 141 131q146 0 146 -131q0 -68 -8 -156l-74 -754h-125l-74 754q-6 68 -6 156zM135 117q0 55 38.5 93t94.5 38t94.5 -38t38.5 -93q0 -56 -39 -95.5t-94 -39.5t-94 39.5t-39 95.5z" />
<glyph unicode="&#x22;" horiz-adv-x="761" d="M104 1264q0 56 32.5 91.5t84.5 35.5q54 0 87.5 -35t33.5 -92q0 -46 -16 -93l-64 -217h-78l-65 217q-15 53 -15 93zM420 1264q0 55 33 91t84 36q54 0 88 -35t34 -92q0 -37 -16 -93l-65 -217h-78l-64 217q-16 47 -16 93z" />
<glyph unicode="#" horiz-adv-x="1284" d="M47 377l39 162h227l72 295h-233l43 161h231l88 371h174l-90 -371h242l90 371h172l-90 -371h225l-41 -161h-225l-72 -295h229l-38 -162h-228l-98 -404h-174l98 404h-242l-96 -404h-174l98 404h-227zM487 539h242l70 295h-242z" />
<glyph unicode="$" horiz-adv-x="1062" d="M96 975q0 150 85.5 235.5t246.5 106.5v168h205v-168q182 -21 311 -94v-283h-258v86q0 54 -42.5 85.5t-113.5 31.5q-84 0 -126 -38t-42 -97q0 -62 47 -95.5t181 -74.5l55 -17q180 -56 254 -134.5t74 -231.5q0 -156 -87.5 -248t-252.5 -115v-190h-205v188q-198 15 -326 98 v308h258v-113q0 -56 45.5 -85.5t114.5 -29.5q90 0 136 45.5t46 112.5q0 46 -17 76t-68.5 58t-147.5 54q-194 55 -283.5 133.5t-89.5 227.5z" />
<glyph unicode="%" horiz-adv-x="1449" d="M92 989v119q0 149 57 216t213 67q82 0 135.5 -17.5t83 -55.5t41 -87.5t11.5 -122.5v-119q0 -72 -12.5 -121t-42.5 -85.5t-83 -54t-133 -17.5q-81 0 -134 16.5t-82.5 53t-41.5 86t-12 122.5zM238 0l790 1366h172l-788 -1366h-174zM264 979q0 -79 21.5 -112t76.5 -33 q54 0 76.5 34t22.5 113v141q0 79 -22 112.5t-77 33.5t-76.5 -33.5t-21.5 -114.5v-141zM817 252v119q0 149 57 215.5t213 66.5q158 0 214.5 -67t56.5 -215v-119q0 -144 -59 -211.5t-212 -67.5q-81 0 -134 17t-82.5 53.5t-41.5 86t-12 122.5zM989 242q0 -79 22 -112.5 t76 -33.5q53 0 75 34.5t22 113.5v141q0 79 -21 112t-76 33q-54 0 -76 -33.5t-22 -113.5v-141z" />
<glyph unicode="&#x26;" horiz-adv-x="1150" d="M82 381q0 290 217 338q-188 63 -188 299q0 169 114 270t318 101q126 0 249 -35t199 -88v-228h-250v54q0 48 -53.5 75t-124.5 27q-95 0 -141.5 -51.5t-46.5 -130.5q0 -209 203 -209h163v106h252v-106h103v-189h-103v-614h-491q-224 0 -322 88t-98 293zM350 403 q0 -103 50.5 -155.5t164.5 -52.5h172v419h-178q-112 0 -160.5 -52.5t-48.5 -158.5z" />
<glyph unicode="'" horiz-adv-x="446" d="M104 1264q0 56 32.5 91.5t84.5 35.5q54 0 87.5 -35t33.5 -92q0 -46 -16 -93l-64 -217h-78l-65 217q-15 53 -15 93z" />
<glyph unicode="(" horiz-adv-x="735" d="M150 690q0 239 103.5 464.5t295.5 422.5l139 -90q-143 -176 -212.5 -377t-69.5 -408q0 -227 63.5 -414t218.5 -409l-135 -90q-403 414 -403 901z" />
<glyph unicode=")" horiz-adv-x="735" d="M51 -123q285 353 285 805q0 213 -65 397.5t-220 405.5l135 92q184 -189 294 -415t110 -480q0 -483 -400 -893z" />
<glyph unicode="*" horiz-adv-x="712" d="M72 1044v119h186l-94 158l102 61l92 -161l91 161l102 -61l-96 -158h186v-119l-186 3l98 -158l-104 -64l-91 164l-92 -164l-102 64l94 158z" />
<glyph unicode="+" d="M150 526v209h344v402h206v-402h344v-209h-344v-393h-206v393h-344z" />
<glyph unicode="," horiz-adv-x="448" d="M92 119q0 56 36 92.5t93 36.5q67 0 106.5 -45t39.5 -113q0 -155 -195 -301l-53 57q83 72 100 156q-62 6 -94.5 36t-32.5 81z" />
<glyph unicode="-" horiz-adv-x="675" d="M96 422v209h484v-209h-484z" />
<glyph unicode="." horiz-adv-x="450" d="M92 115q0 57 38.5 95t94.5 38t95.5 -38.5t39.5 -94.5q0 -55 -39.5 -94t-95.5 -39q-55 0 -94 39t-39 94z" />
<glyph unicode="/" horiz-adv-x="854" d="M0 -137l670 1638h186l-672 -1638h-184z" />
<glyph unicode="0" horiz-adv-x="1081" d="M100 430v512q0 106 19.5 183t67 139.5t136 94.5t218.5 32q109 0 189 -22.5t128 -60.5t76.5 -98.5t38.5 -125.5t10 -152v-510q0 -107 -20 -184.5t-68 -139.5t-137 -93.5t-219 -31.5q-106 0 -183.5 21t-126.5 58t-78 96t-40 126t-11 156zM362 422q0 -133 38.5 -195.5 t138.5 -62.5t139 63.5t39 196.5v518q0 134 -37 196t-139 62q-100 0 -139.5 -63.5t-39.5 -196.5v-518z" />
<glyph unicode="1" horiz-adv-x="661" d="M139 0v166q40 8 51 24t11 70v846q0 54 -11 70t-51 24v166h324v-1106q0 -54 11 -70.5t52 -23.5v-166h-387z" />
<glyph unicode="2" horiz-adv-x="1069" d="M98 0v229q0 128 24.5 206.5t81 139.5t171.5 138l166 110q92 63 125.5 108.5t33.5 112.5q0 69 -43.5 111.5t-121.5 42.5q-168 0 -168 -115v-131h-252v314q172 125 428 125q424 0 424 -365q0 -72 -13 -124.5t-48 -99t-80 -83.5t-124 -90l-178 -117q-42 -28 -70.5 -51 t-47.5 -45.5t-29.5 -39t-15.5 -42t-6 -43.5t-1 -53v-50h246q68 0 88.5 18t20.5 73v110h252v-389h-863z" />
<glyph unicode="3" horiz-adv-x="1058" d="M96 104v330h254v-137q0 -66 48 -99.5t120 -33.5q97 0 143 61.5t46 165.5q0 115 -52.5 175.5t-175.5 60.5h-121v188h111q118 0 168.5 53t50.5 150q0 182 -172 182q-64 0 -112 -30t-48 -85v-112h-256v293q178 125 435 125q417 0 417 -361q0 -127 -50.5 -200.5t-168.5 -98.5 q240 -39 240 -346q0 -94 -22 -165.5t-73 -129t-143.5 -87.5t-224.5 -30t-230.5 33.5t-183.5 97.5z" />
<glyph unicode="4" horiz-adv-x="1058" d="M66 375v192l509 799h295v-799h131v-192h-131v-131q0 -40 12.5 -57t47.5 -23v-164h-391v162q42 6 56.5 22t14.5 60v131h-544zM303 567h309v488z" />
<glyph unicode="5" horiz-adv-x="1073" d="M117 106v326h252v-129q0 -64 46.5 -101.5t121.5 -37.5q104 0 144 70t40 225q0 147 -40.5 206.5t-141.5 59.5q-65 0 -109 -30.5t-57 -90.5h-256v762h829v-342h-250v78q0 49 -21.5 62.5t-74.5 13.5h-231v-330q105 72 235 72q109 0 184 -31.5t117 -92.5t60 -139t18 -184v-41 q0 -239 -104.5 -349t-327.5 -110q-142 0 -238.5 32t-195.5 101z" />
<glyph unicode="6" horiz-adv-x="1067" d="M100 461v471q0 69 6.5 123t23.5 108.5t48.5 94t78.5 70.5t117 47t161 16q230 0 423 -123v-281h-249v86q0 59 -42.5 93t-117.5 34q-59 0 -97.5 -18.5t-57 -55.5t-25.5 -78.5t-7 -101.5v-133q108 82 248 82q373 0 373 -420v-59q0 -81 -11 -144t-40 -121t-77 -95.5 t-126.5 -60t-183.5 -22.5q-96 0 -168 14.5t-120.5 45.5t-80 70.5t-48 98t-22.5 118t-6 141.5zM360 416q0 -135 41.5 -191.5t139.5 -56.5q46 0 78.5 12.5t52 33t31 53t15 65.5t3.5 78v49q0 126 -41 186t-141 60q-179 0 -179 -228v-61z" />
<glyph unicode="7" horiz-adv-x="991" d="M76 911v455h870v-156l-467 -1210h-278l456 1174h-256q-65 0 -82.5 -22.5t-17.5 -82.5v-158h-225z" />
<glyph unicode="8" horiz-adv-x="1075" d="M80 391q-1 147 50.5 226.5t162.5 115.5q-187 61 -187 297q0 361 435 361q212 0 320 -88t108 -271q0 -238 -189 -299q112 -38 163.5 -116.5t51.5 -225.5q0 -214 -110.5 -316t-343.5 -102q-240 0 -350.5 103t-110.5 315zM352 381q0 -109 42.5 -164t142.5 -55 q97 0 141.5 52.5t44.5 162.5v26q0 113 -41.5 171.5t-144.5 58.5q-101 0 -143 -57.5t-42 -172.5v-22zM367 1006q0 -95 43.5 -145t128.5 -50t128.5 50t43.5 147v20q0 174 -168 174q-176 0 -176 -178v-18z" />
<glyph unicode="9" horiz-adv-x="1064" d="M86 874v74q0 81 9 141.5t36 120t73.5 97t125.5 61t188 23.5q245 0 346 -107t101 -336v-524q0 -54 -4 -98t-16 -92t-32 -85t-54.5 -71t-80.5 -56.5t-112.5 -35.5t-149.5 -13q-240 0 -407 121v277h247v-86q0 -56 44 -85.5t114 -29.5q48 0 83 13.5t55 35.5t31.5 57.5 t15 70.5t3.5 83v121q-103 -84 -247 -84q-369 0 -369 407zM344 905q0 -127 41 -186.5t141 -59.5q93 0 136 55.5t43 172.5v67q0 135 -41.5 190.5t-139.5 55.5q-103 0 -141.5 -62.5t-38.5 -181.5v-51z" />
<glyph unicode=":" horiz-adv-x="448" d="M92 115q0 57 38.5 95t94.5 38t95.5 -38.5t39.5 -94.5q0 -55 -39.5 -94t-95.5 -39q-55 0 -94 39t-39 94zM92 842q0 57 38.5 96t94.5 39t95.5 -39t39.5 -96q0 -55 -39.5 -94t-95.5 -39q-55 0 -94 38.5t-39 94.5z" />
<glyph unicode=";" horiz-adv-x="448" d="M86 119q0 56 37 92.5t94 36.5q67 0 105 -45t38 -115q0 -150 -192 -299l-55 57q83 72 100 156q-61 6 -94 36t-33 81zM86 842q0 56 39 95.5t94 39.5q56 0 95.5 -39t39.5 -96q0 -55 -39.5 -94t-95.5 -39q-54 0 -93.5 39t-39.5 94z" />
<glyph unicode="&#x3c;" d="M166 537v190l862 391v-217l-614 -270v-4l614 -269v-215z" />
<glyph unicode="=" d="M150 291v207h897v-207h-897zM150 766v207h897v-207h-897z" />
<glyph unicode="&#x3e;" d="M166 143v217l614 269v4l-614 270v215l864 -391v-190z" />
<glyph unicode="?" horiz-adv-x="1013" d="M100 963v303q166 125 418 125q203 0 313.5 -90.5t110.5 -268.5q0 -119 -46.5 -196t-154.5 -148q-43 -28 -71.5 -50.5t-49 -46.5t-31.5 -43t-17 -48t-7.5 -54.5t-1.5 -68.5v-27h-225v107q0 138 40 214t154 152q87 60 119.5 105t32.5 110q0 70 -42 114t-126 44 q-172 0 -172 -115v-118h-244zM324 115q0 56 39 94.5t94 38.5q56 0 95.5 -38.5t39.5 -94.5q0 -55 -39.5 -94t-95.5 -39q-54 0 -93.5 39t-39.5 94z" />
<glyph unicode="@" horiz-adv-x="1857" d="M119 406q0 151 39 290t117 256.5t186.5 205t255 136.5t315.5 49q136 0 252.5 -35.5t200 -98t142.5 -147t87.5 -182t28.5 -202.5q0 -279 -130.5 -455t-336.5 -176q-37 0 -70 8.5t-65 28.5t-53 59.5t-25 94.5q-41 -86 -107 -138.5t-153 -52.5q-119 0 -190.5 85t-71.5 243 q0 151 53 281.5t153.5 212t227.5 81.5q105 0 174 -76l14 60h197l-105 -447q-24 -127 -24 -172q0 -116 80 -116q94 0 172 128t78 332q0 111 -32.5 205.5t-97.5 168t-172.5 115.5t-246.5 42q-154 0 -286.5 -62t-222.5 -167.5t-141 -246.5t-51 -298q0 -274 160.5 -438 t425.5 -164q228 0 375 92q46 -64 92 -121q-210 -123 -473 -123q-179 0 -325.5 57t-243.5 157t-150 236t-53 294zM743 385q0 -172 105 -172q69 0 127.5 81t87.5 220l47 209q-41 74 -123 74q-97 0 -170.5 -121.5t-73.5 -290.5z" />
<glyph unicode="A" horiz-adv-x="1097" d="M45 0v166q24 13 36.5 33t22.5 69l252 1098h371l260 -1092q11 -54 27 -77t43 -31v-166h-369v166q38 13 38 60q0 8 -1 16q0 11 -9 51t-19 79t-11 42h-315l-11 -40q-10 -40 -19 -81t-9 -57q-1 -7 -1 -13q0 -46 46 -57v-166h-332zM406 594h243l-88 373q-3 15 -10 48t-13 62.5 t-10 61.5h-8q-5 -43 -31 -168z" />
<glyph unicode="B" horiz-adv-x="1130" d="M96 0v166q42 9 53 28t11 82v811q0 63 -11 83.5t-53 29.5v166h520q212 0 309 -81t97 -255q0 -132 -48.5 -207.5t-154.5 -107.5q125 -25 180.5 -108t55.5 -224q0 -200 -103 -291.5t-315 -91.5h-541zM420 184h153q109 2 159 50.5t50 162.5q0 112 -48.5 163.5t-162.5 51.5 h-151v-428zM420 801h141q103 0 150 46t47 142q0 105 -48 147t-155 42h-135v-377z" />
<glyph unicode="C" horiz-adv-x="1089" d="M106 436v484q0 91 12 160t42.5 129.5t81 99t129 60.5t184.5 22q257 0 428 -119v-373h-256v188q0 52 -44 82.5t-122 30.5q-105 0 -147.5 -69t-42.5 -205v-477q0 -144 44 -213.5t148 -69.5q166 0 166 131v223h258v-430q-89 -62 -190 -88.5t-232 -26.5q-243 0 -351 115.5 t-108 345.5z" />
<glyph unicode="D" horiz-adv-x="1142" d="M96 0v166q39 7 51.5 27t12.5 75v830q0 56 -12 75.5t-52 26.5v166h506q225 0 330.5 -109.5t105.5 -359.5v-436q0 -238 -106 -349.5t-328 -111.5h-508zM422 195h129q129 0 177 66t48 212v442q0 133 -51.5 196t-167.5 63h-135v-979z" />
<glyph unicode="E" horiz-adv-x="1087" d="M96 0v166q41 7 52.5 28t11.5 82v834q0 48 -12.5 65.5t-51.5 24.5v166h903v-399h-243v108q0 58 -19 79.5t-75 21.5h-240v-371h326v-193h-326v-422h211q80 0 101.5 20t21.5 95v125h243v-430h-903z" />
<glyph unicode="F" horiz-adv-x="1052" d="M96 0v166q40 7 52 26.5t12 73.5v832q0 56 -12 75.5t-52 26.5v166h885v-410h-229v127q0 57 -18.5 74.5t-84.5 18.5h-227v-394h326v-194h-326v-338q0 -45 14 -63t56 -21v-166h-396z" />
<glyph unicode="G" horiz-adv-x="1122" d="M106 496v378q0 275 106 396t349 121q265 0 432 -111v-367h-254v162q0 58 -43.5 91.5t-117.5 33.5q-112 0 -160.5 -74t-48.5 -235v-391q0 -182 50.5 -258t162.5 -76q76 0 121 30.5t45 92.5v241h-177v199h430v-633q-156 -121 -421 -121q-137 0 -230 32.5t-146.5 101 t-75.5 161t-22 226.5z" />
<glyph unicode="H" horiz-adv-x="1210" d="M96 0v166q39 7 51.5 27t12.5 75v830q0 55 -12.5 75t-51.5 27v166h381v-166q-36 -7 -45.5 -22.5t-9.5 -61.5v-313h369v313q0 44 -10 60.5t-46 23.5v166h381v-166q-40 -7 -50.5 -26.5t-10.5 -75.5v-830q0 -56 10.5 -75.5t50.5 -26.5v-166h-381v166q36 7 46 22.5t10 57.5 v366h-369v-368q0 -42 10 -57t45 -21v-166h-381z" />
<glyph unicode="I" horiz-adv-x="577" d="M96 0v166q39 7 51.5 27t12.5 75v830q0 56 -12 75.5t-52 26.5v166h387v-166q-40 -7 -50.5 -26.5t-10.5 -75.5v-830q0 -57 10.5 -76t50.5 -26v-166h-387z" />
<glyph unicode="J" horiz-adv-x="634" d="M23 6v164q48 -12 69 -12q74 0 104.5 48.5t30.5 168.5v725q0 55 -14.5 76t-54.5 24v166h393v-166q-42 -9 -52 -29t-10 -86v-729q0 -195 -73.5 -284.5t-229.5 -89.5q-92 0 -163 24z" />
<glyph unicode="K" horiz-adv-x="1118" d="M96 0v166q39 7 51.5 27t12.5 75v830q0 56 -12 75.5t-52 26.5v166h387v-166q-40 -7 -50.5 -26.5t-10.5 -75.5v-322l231 316q29 48 39.5 66t18.5 47t8 65v96h336v-166q-38 -8 -61.5 -24t-57.5 -62l-281 -379l303 -456q66 -99 136 -111v-168h-355v88q0 45 -11.5 78t-41.5 82 l-264 383v-363q0 -57 10.5 -76t50.5 -26v-166h-387z" />
<glyph unicode="L" horiz-adv-x="1036" d="M96 0v166q39 7 51.5 27t12.5 75v830q0 56 -12 75.5t-52 26.5v166h393v-166q-42 -7 -54.5 -27t-12.5 -75v-908h199q74 2 95 20t21 81v239h234v-530h-875z" />
<glyph unicode="M" horiz-adv-x="1435" d="M96 0v166q39 7 51.5 27t12.5 75v830q0 56 -12 75.5t-52 26.5v166h406l215 -838h4l223 838h399v-166q-40 -7 -50.5 -26.5t-10.5 -75.5v-830q0 -57 10.5 -76t50.5 -26v-166h-378v166q40 9 50.5 27.5t10.5 74.5v725h-6q-7 -59 -39 -180l-227 -813h-117l-231 852 q-12 49 -33 141h-4v-725q0 -57 11 -76t50 -26v-166h-334z" />
<glyph unicode="N" horiz-adv-x="1200" d="M96 0v166q39 7 51.5 27t12.5 75v830q0 56 -12 75.5t-52 26.5v166h324l414 -887v619q0 58 -12.5 78t-51.5 24v166h342v-166q-39 -9 -50 -28t-11 -74v-1098h-256l-367 764q-43 97 -57 133v-629q0 -58 11 -78t50 -24v-166h-336z" />
<glyph unicode="O" horiz-adv-x="1124" d="M106 434v496q0 109 21.5 189.5t72 144t142.5 95.5t225 32q126 0 215 -31.5t140.5 -93t74.5 -142.5t23 -190v-502q0 -223 -105 -340t-348 -117q-248 0 -354.5 114.5t-106.5 344.5zM371 444q0 -136 44 -207t152 -71q100 0 143.5 71t43.5 207v478q0 135 -43.5 206.5 t-143.5 71.5q-58 0 -97.5 -20t-60.5 -59.5t-29.5 -86.5t-8.5 -112v-478z" />
<glyph unicode="P" horiz-adv-x="1107" d="M96 0v166q42 7 53 26.5t11 83.5v838q-2 44 -14 61.5t-50 24.5v166h514q420 0 420 -426v-31q0 -171 -50 -274.5t-143 -147t-241 -43.5h-174v-174q0 -57 11 -75.5t59 -28.5v-166h-396zM422 633h135q109 2 159 55t50 180v84q0 115 -48.5 169.5t-158.5 54.5h-137v-543z" />
<glyph unicode="Q" horiz-adv-x="1124" d="M106 436v494q0 109 21.5 189.5t72 144t142.5 95.5t225 32q126 0 215 -31.5t140.5 -93t74.5 -142.5t23 -190v-502q0 -245 -125 -352q55 -55 147 -92l-79 -166q-170 58 -299 162q-46 -9 -99 -9q-247 0 -353 114.5t-106 346.5zM371 444q0 -131 44 -204.5t152 -73.5 q99 0 143 71.5t44 206.5v482q0 274 -187 274q-58 0 -97.5 -20t-60.5 -59.5t-29.5 -86.5t-8.5 -112v-478z" />
<glyph unicode="R" horiz-adv-x="1142" d="M96 0v166q39 7 51.5 27t12.5 75v830q0 56 -12 75.5t-52 26.5v166h533q194 0 298.5 -87t104.5 -280q0 -120 -52.5 -206t-156.5 -117q107 -24 147 -84.5t40 -181.5v-134q0 -65 10.5 -84.5t46.5 -25.5v-166h-305q-17 105 -17 248v135q0 101 -45.5 143.5t-162.5 42.5h-115 v-301q0 -56 10 -74.5t49 -27.5v-166h-385zM422 766h145q105 1 150 51t45 158q0 116 -49.5 159.5t-169.5 43.5h-121v-412z" />
<glyph unicode="S" horiz-adv-x="1079" d="M109 92v330h256v-98q0 -156 170 -156q104 0 148 55t44 142q0 63 -18 102t-69.5 72t-150.5 63q-98 32 -164.5 65.5t-117.5 81.5t-74.5 112.5t-23.5 150.5q0 383 436 383q234 0 411 -127v-295h-249v80q0 73 -43 111t-113 38q-176 0 -176 -166q0 -86 46.5 -128t168.5 -83 l80 -24q182 -63 252.5 -157t70.5 -253q0 -418 -456 -418q-139 0 -239 28.5t-189 90.5z" />
<glyph unicode="T" horiz-adv-x="1107" d="M41 862v504h1026v-504h-201v252q0 38 -15 53t-56 15h-111v-914q0 -51 12.5 -70.5t57.5 -31.5v-166h-398v166q44 12 58 32.5t14 71.5v912h-113q-40 0 -56.5 -15.5t-16.5 -52.5v-252h-201z" />
<glyph unicode="U" horiz-adv-x="1146" d="M80 1200v166h383v-164q-38 -10 -48 -27.5t-12 -64.5v-711q0 -237 181 -237q96 0 135 56.5t39 180.5l2 693q0 60 -10.5 80.5t-47.5 29.5v164h361v-166q-39 -7 -50.5 -26t-11.5 -66v-692q0 -82 -10.5 -145.5t-39 -122t-75 -96.5t-122 -60.5t-176.5 -22.5q-227 0 -332 110.5 t-105 321.5v697q-2 56 -12.5 75.5t-48.5 26.5z" />
<glyph unicode="V" horiz-adv-x="1058" d="M41 1200v166h367v-166q-39 -12 -39 -53q0 -22 6 -43l141 -604q19 -95 35 -197h6q10 87 31 195l141 610q4 28 4 37q0 43 -45 55v166h330v-166q-24 -8 -37 -30t-25 -76l-254 -1094h-337l-261 1110q-9 40 -22 58t-41 32z" />
<glyph unicode="W" horiz-adv-x="1474" d="M33 1200v166h366v-166q-24 -9 -32.5 -19.5t-8.5 -31.5q0 -14 7 -49l92 -545q11 -60 18 -135h8q3 32 19 135l157 811h195l152 -799q21 -95 24 -147h6q13 115 19 147l90 477q12 78 12 101q0 41 -43 55v166h328v-166q-25 -15 -37.5 -34t-22.5 -66l-219 -1100h-266l-129 727 q-19 109 -27 170h-6q-7 -88 -24 -172l-142 -725h-260l-213 1100q-8 48 -21 66t-42 34z" />
<glyph unicode="X" horiz-adv-x="1019" d="M31 0v166q63 20 114 117l224 422l-217 399q-24 46 -48 67t-53 29v166h336v-63q0 -52 6.5 -80.5t32.5 -89.5l98 -215l107 235q18 43 24.5 72.5t6.5 74.5v66h307v-166q-67 -21 -111 -102l-211 -383l244 -459q41 -80 98 -90v-166h-358q0 78 -15 166q-7 28 -30 85t-56 134 t-47 111l-127 -281q-14 -34 -18 -58.5t-4 -72.5v-84h-303z" />
<glyph unicode="Y" horiz-adv-x="1026" d="M27 1200v166h340v-100q0 -43 7 -73.5t27 -80.5l131 -307l125 289q17 39 24 58t14 49.5t7 60.5v104h297v-166q-33 -8 -53 -31t-43 -69l-258 -551v-268q0 -63 12 -85.5t54 -29.5v-166h-396v166q41 7 54.5 31t13.5 84v260l-248 549q-27 55 -51 78.5t-57 31.5z" />
<glyph unicode="Z" horiz-adv-x="1052" d="M84 0v164l545 1012h-217q-67 0 -88 -20.5t-21 -82.5v-174h-199v467h840v-160l-543 -1011h234q47 0 70.5 4t37.5 20.5t16.5 39t2.5 71.5v145h203v-475h-881z" />
<glyph unicode="[" horiz-adv-x="684" d="M188 -205v1776h383v-148h-135v-1480h135v-148h-383z" />
<glyph unicode="\" horiz-adv-x="858" d="M0 1501h188l670 -1638h-188z" />
<glyph unicode="]" horiz-adv-x="641" d="M113 -57h137v1480h-137v148h383v-1776h-383v148z" />
<glyph unicode="^" d="M102 672l400 786h190l400 -786h-256l-236 545h-6l-236 -545h-256z" />
<glyph unicode="_" horiz-adv-x="1024" d="M0 -215h1024v-195h-1024v195z" />
<glyph unicode="`" horiz-adv-x="604" d="M152 1417h196l94 -248h-116z" />
<glyph unicode="a" horiz-adv-x="989" d="M86 252q0 123 75 194.5t220 120.5l250 88v31q0 94 -27.5 136t-105.5 42q-82 0 -114 -25t-32 -83v-66h-221v250q95 44 181.5 64t201.5 20q189 0 268.5 -78t79.5 -254v-438q0 -50 11 -69t47 -29v-156h-281v96q-136 -116 -279 -116q-135 0 -204.5 71.5t-69.5 200.5zM326 272 q0 -50 32 -78t84 -28q95 0 189 98v221l-99 -36q-115 -45 -160.5 -81.5t-45.5 -95.5z" />
<glyph unicode="b" horiz-adv-x="1015" d="M74 1210v156h291v-436q103 88 243 88q73 0 129.5 -19t92 -51t58 -77.5t31.5 -94t9 -104.5v-314q0 -378 -375 -378q-250 0 -424 124v1010q0 49 -9.5 67.5t-45.5 28.5zM365 201q71 -47 157 -47q87 0 128.5 56t41.5 185v226q0 108 -36.5 162.5t-118.5 54.5q-96 0 -172 -80 v-557z" />
<glyph unicode="c" horiz-adv-x="966" d="M90 381v256q0 71 10 126.5t37 106t71 83t114.5 52t164.5 19.5q213 0 375 -111v-256h-223v115q0 42 -36 67t-93 25q-94 0 -139 -51.5t-45 -187.5v-246q0 -132 44 -186t140 -54q57 0 94 26.5t37 78.5v125h223v-281q-144 -108 -356 -108q-123 0 -205.5 25.5t-128.5 79 t-65 124t-19 172.5z" />
<glyph unicode="d" horiz-adv-x="1026" d="M90 348v328q0 165 78 254.5t227 89.5q137 0 262 -76v170q-2 49 -12 67.5t-47 28.5v156h291v-1112q0 -51 10 -69.5t49 -28.5v-156h-284v78q-130 -92 -258 -92q-163 0 -239.5 92t-76.5 270zM326 397q0 -132 40 -181.5t123 -49.5q89 0 168 67v545q-76 62 -172 62 q-90 0 -124.5 -58t-34.5 -170v-215z" />
<glyph unicode="e" horiz-adv-x="974" d="M90 360v285q0 196 95.5 287.5t306.5 91.5q120 0 199.5 -26.5t122 -81t59 -122.5t16.5 -167v-172h-563v-99q0 -109 42 -163t134 -54q75 0 110 27.5t35 89.5v68h236v-240q-80 -54 -169.5 -79t-211.5 -25q-227 0 -319.5 93t-92.5 287zM326 616h329v37q-2 102 -38.5 156.5 t-122.5 54.5q-88 0 -128 -57.5t-40 -171.5v-19z" />
<glyph unicode="f" horiz-adv-x="518" d="M63 836v168h64v118q0 137 66 202t184 65q69 0 147 -19v-156q-21 7 -45 7q-117 0 -117 -136v-81h123v-168h-123v-582q0 -51 10.5 -69.5t47.5 -28.5v-156h-348v156q36 10 45.5 28.5t9.5 69.5v582h-64z" />
<glyph unicode="g" horiz-adv-x="1026" d="M90 346v305q0 367 303 367q160 0 269 -105v91h286v-156q-36 -10 -46.5 -29t-10.5 -67v-762q0 -192 -88.5 -284.5t-300.5 -92.5q-208 0 -377 88v221h217v-43q0 -50 42.5 -78t107.5 -28q86 0 125.5 50.5t39.5 158.5v98q-129 -74 -249 -74q-160 0 -239 88.5t-79 251.5z M326 395q0 -116 41 -162.5t125 -46.5q89 0 163 56v512q-75 82 -172 82q-90 0 -123.5 -59t-33.5 -183v-199z" />
<glyph unicode="h" horiz-adv-x="1058" d="M82 0v156q37 10 48 29t11 69v860q-2 49 -12.5 67.5t-46.5 28.5v156h291v-444q119 96 260 96q74 0 128.5 -19t85 -47.5t48.5 -70.5t23.5 -79.5t5.5 -82.5v-465q0 -50 10.5 -69t46.5 -29v-156h-279q-14 103 -14 254v405q0 96 -34 137.5t-111 41.5q-49 0 -95 -24.5 t-75 -57.5v-502q0 -51 10.5 -69.5t48.5 -28.5v-156h-350z" />
<glyph unicode="i" horiz-adv-x="512" d="M86 0v156q36 10 46.5 29t10.5 69v496q0 50 -10.5 69t-46.5 29v156h291v-750q0 -51 10 -69.5t47 -28.5v-156h-348zM106 1249q0 60 39 97.5t99 37.5q59 0 98 -38t39 -97q0 -62 -39 -100.5t-98 -38.5q-61 0 -99.5 37.5t-38.5 101.5z" />
<glyph unicode="j" horiz-adv-x="466" d="M-12 -211q3 0 11.5 -2t16.5 -2q50 0 75.5 32t25.5 107v826q0 51 -10.5 69.5t-47.5 28.5v156h291v-1113q0 -274 -239 -274q-71 0 -123 12v160zM82 1249q0 60 38.5 97.5t98.5 37.5t98.5 -37.5t38.5 -97.5q0 -62 -39 -100.5t-98 -38.5q-61 0 -99 37.5t-38 101.5z" />
<glyph unicode="k" horiz-adv-x="935" d="M72 0v156q37 10 48 29t11 69v858q-2 51 -12.5 69.5t-46.5 28.5v156h290v-739l177 202q26 32 35.5 61t9.5 75v39h299v-156q-31 -1 -55 -15.5t-56 -48.5l-190 -200l206 -320q32 -52 60.5 -75.5t69.5 -32.5v-156h-238q-61 77 -109 168l-209 319v-233q0 -50 11 -69t47 -29 v-156h-348z" />
<glyph unicode="l" horiz-adv-x="497" d="M72 0v156q36 10 46.5 29t10.5 69v858q0 50 -10.5 69t-46.5 29v156h290v-1112q0 -51 10.5 -69.5t47.5 -28.5v-156h-348z" />
<glyph unicode="m" horiz-adv-x="1560" d="M86 0v156q36 10 46.5 29t10.5 69v498q-2 49 -12 67.5t-45 28.5v156h285v-84q117 98 254 98q89 0 145.5 -30.5t93.5 -90.5q61 60 128.5 90.5t156.5 30.5q71 0 123 -19.5t81 -48t46.5 -71t22.5 -79t5 -81.5v-473q0 -49 10 -64t46 -26v-156h-277q-14 100 -14 240v419 q0 96 -32 137.5t-103 41.5q-46 0 -88 -26t-66 -67v-491q0 -51 9.5 -69.5t45.5 -28.5v-156h-276q-14 93 -14 236v423q0 96 -32.5 137.5t-103.5 41.5q-45 0 -86 -24.5t-69 -57.5v-502q0 -51 10 -69.5t47 -28.5v-156h-348z" />
<glyph unicode="n" horiz-adv-x="1064" d="M86 0v156q36 10 46.5 29t10.5 69v498q-2 49 -12 67.5t-45 28.5v156h285v-84q120 98 266 98q73 0 127.5 -19t85 -48t49 -71t24 -80t5.5 -83v-463q0 -50 10 -69t45 -29v-156h-276q-15 110 -15 254v405q0 96 -34 137.5t-111 41.5q-49 0 -95 -24.5t-75 -57.5v-502 q0 -51 10 -69.5t47 -28.5v-156h-348z" />
<glyph unicode="o" horiz-adv-x="960" d="M90 381v248q0 76 9.5 133t35.5 108.5t69 83.5t112.5 51t164.5 19q115 0 192 -26t120.5 -79.5t61 -124t17.5 -171.5v-242q0 -100 -17 -170t-59.5 -124.5t-120 -80.5t-194.5 -26q-115 0 -192 25.5t-120.5 79t-61 124t-17.5 172.5zM326 379q0 -131 37.5 -185.5t117.5 -54.5 q83 0 119.5 54t36.5 182v256q0 124 -36.5 178.5t-119.5 54.5q-80 0 -117.5 -51t-37.5 -186v-248z" />
<glyph unicode="p" horiz-adv-x="1028" d="M82 -207q36 10 46.5 29.5t10.5 66.5v861q0 50 -10.5 69t-46.5 29v156h285v-78q127 92 256 92q74 0 129.5 -19t90.5 -50.5t56.5 -79t30 -98.5t8.5 -114v-323q0 -165 -75.5 -257.5t-237.5 -92.5q-71 0 -128.5 21.5t-123.5 60.5v-172q0 -51 11 -70t48 -29v-155h-350v153z M373 227q69 -63 168 -63q92 0 126.5 57t34.5 170v215q0 133 -41 182.5t-120 49.5q-90 0 -168 -66v-545z" />
<glyph unicode="q" horiz-adv-x="1024" d="M86 344v313q0 180 75.5 270.5t235.5 90.5q133 0 260 -92v78h226v-1104q0 -57 10 -76t49 -31v-153h-350v155q38 10 48.5 28.5t10.5 70.5v172q-137 -82 -252 -82q-83 0 -144.5 27t-97.5 76.5t-53.5 113.5t-17.5 143zM319 391q2 -113 37 -170t127 -57q95 0 168 63v545 q-81 66 -168 66q-79 0 -121.5 -49.5t-42.5 -182.5v-215z" />
<glyph unicode="r" horiz-adv-x="626" d="M86 0v156q36 10 46.5 29t10.5 69v496q-2 51 -11.5 69.5t-45.5 28.5v156h281v-117q66 135 186 135q27 0 45 -4v-219q-32 4 -43 4q-73 0 -125.5 -66t-52.5 -186v-297q0 -52 10.5 -70.5t50.5 -27.5v-156h-352z" />
<glyph unicode="s" horiz-adv-x="905" d="M86 723q0 147 95.5 223t275.5 76q97 0 191.5 -20t162.5 -56v-244h-221v66q0 96 -133 96q-71 0 -107.5 -31.5t-36.5 -84.5q0 -56 40.5 -84.5t162.5 -61.5q169 -45 244.5 -112.5t75.5 -194.5q0 -155 -99 -234t-282 -79q-210 0 -359 88v260h223v-88q0 -52 37.5 -77.5 t92.5 -25.5q72 0 112.5 38t40.5 99q0 63 -39.5 96.5t-159.5 63.5q-164 43 -240.5 106t-76.5 181z" />
<glyph unicode="t" horiz-adv-x="546" d="M39 836v168h74v241l235 60v-301h148v-168h-148v-549q0 -67 30 -95.5t97 -33.5h25v-156q-58 -12 -121 -12q-144 0 -205 64.5t-61 191.5v590h-74z" />
<glyph unicode="u" horiz-adv-x="1044" d="M76 848v156h278q15 -94 15 -252v-408q0 -95 32 -137.5t101 -42.5q52 0 98 25t74 57v504q0 50 -11 69t-49 29v156h293v-752q0 -49 10.5 -67.5t47.5 -28.5v-156h-285v88q-124 -102 -268 -102q-279 0 -279 290v474q0 51 -10 69.5t-47 28.5z" />
<glyph unicode="v" horiz-adv-x="909" d="M18 848v156h338v-156q-41 -6 -41 -47q0 -4 1.5 -9.5t3 -13t2.5 -10.5l122 -379q29 -102 33 -117q3 14 8.5 36t12.5 47.5t10 35.5l110 379q7 21 7 33q0 33 -39 45v156h303v-156q-43 -11 -60 -68l-239 -780h-260l-248 762q-14 47 -26 61.5t-38 24.5z" />
<glyph unicode="w" horiz-adv-x="1329" d="M23 848v156h337v-156q-41 -11 -41 -43q0 -5 1.5 -12.5t3.5 -19t4 -21.5l80 -308q22 -111 22 -114q7 47 25 116l143 558h170l147 -572q9 -28 25 -102q5 40 21 106l81 324q5 35 5 43q0 37 -41 45v156h301v-156q-27 -11 -40.5 -28t-25.5 -58l-201 -762h-223l-131 512 q-13 52 -22 102q-4 -15 -25 -104l-131 -510h-221l-199 766q-12 41 -25 57t-40 25z" />
<glyph unicode="x" horiz-adv-x="872" d="M20 0v156q63 15 109 82l190 266l-176 266q-27 40 -49 55.5t-53 22.5v156h297v-54q0 -40 6 -65.5t27 -57.5l78 -120l75 120q26 38 31.5 61t5.5 68v48h266v-156q-50 -9 -100 -76l-172 -242l190 -297q44 -67 107 -77v-156h-311v61q0 71 -37 129l-86 142l-90 -137 q-25 -38 -33 -68t-8 -80v-47h-267z" />
<glyph unicode="y" horiz-adv-x="911" d="M18 848v156h338v-156q-39 -6 -39 -41q0 -17 7 -31l129 -381q5 -13 14.5 -46t15.5 -50q2 8 13 47t16 53l113 379q4 20 4 27q0 40 -43 43v156h305v-156q-25 -7 -38 -27t-26 -59l-258 -842q-22 -73 -43 -121t-53 -86.5t-77 -56.5t-107 -18q-84 0 -133 22v147l16 -3 q16 -3 25 -3q46 0 78.5 26.5t54.5 92.5l24 76l-274 788q-12 32 -26 46.5t-36 17.5z" />
<glyph unicode="z" horiz-adv-x="915" d="M55 0v160l498 684h-215q-54 0 -71 -13.5t-17 -54.5v-127h-176v355h774v-152l-504 -692h231q73 0 90 14.5t17 79.5v98h186v-352h-813z" />
<glyph unicode="{" horiz-adv-x="735" d="M94 612v142h27q72 0 100.5 51.5t28.5 161.5v327q0 125 65.5 201t186.5 76h182v-148h-51q-47 0 -75 -12t-41 -42t-16 -60.5t-3 -87.5v-273q0 -107 -42 -170t-130 -96v-2q87 -30 129.5 -93t42.5 -169v-273q0 -57 3 -87.5t16 -60.5t41 -42t75 -12h51v-148h-182 q-121 0 -186.5 76t-65.5 201v325q0 110 -28.5 162.5t-100.5 52.5h-27z" />
<glyph unicode="|" horiz-adv-x="628" d="M211 -360v1726h207v-1726h-207z" />
<glyph unicode="}" horiz-adv-x="735" d="M45 -57h51q38 0 63.5 9.5t40 24t22 42.5t9.5 54.5t2 71.5v273q0 107 41.5 170t128.5 96v2q-86 30 -128 93t-42 169v273q0 45 -2 71.5t-9.5 54.5t-22 42.5t-40 24t-63.5 9.5h-51v148h182q123 0 188.5 -76t65.5 -201v-325q0 -111 28 -163t101 -52h25v-142h-25 q-73 0 -101 -51.5t-28 -161.5v-327q0 -125 -65.5 -201t-188.5 -76h-182v148z" />
<glyph unicode="~" d="M88 606q62 88 131 136.5t168 48.5q109 0 223 -62q45 -23 69.5 -34.5t58 -21t63.5 -9.5q97 0 170 135l137 -158q-63 -92 -134 -138t-167 -46q-107 0 -227 63q-3 2 -19 10.5t-21 10.5t-19.5 9.5t-21 10t-19.5 8t-21.5 7.5t-20 5t-22 4t-21.5 1q-99 0 -172 -135z" />
<glyph unicode="&#xa1;" horiz-adv-x="538" d="M123 115q0 19 8 151l76 758h125l71 -758q7 -74 7 -151q0 -133 -142 -133q-70 0 -107.5 34t-37.5 99zM135 1257q0 56 39 95t94 39q57 0 95 -39t38 -95t-38 -94.5t-95 -38.5q-56 0 -94.5 39t-38.5 94z" />
<glyph unicode="&#xa2;" horiz-adv-x="942" d="M90 573v256q0 79 13.5 139t45.5 112t91.5 85t146.5 45v136h209v-136q145 -21 268 -104v-256h-225v113q0 43 -36.5 67.5t-94.5 24.5q-91 0 -136.5 -51.5t-45.5 -186.5v-246q0 -130 44 -184.5t138 -54.5q59 0 96 26t37 78v125h223v-280q-117 -88 -268 -105v-141h-209v143 q-86 12 -144.5 43.5t-91.5 83.5t-47 116t-14 152z" />
<glyph unicode="&#xa3;" horiz-adv-x="1081" d="M90 592v194h76v152q0 232 97 342.5t310 110.5q231 0 412 -136v-352h-246v160q0 59 -34.5 96t-112.5 37q-95 0 -130.5 -62t-35.5 -194v-154h283v-194h-283v-402h221q67 2 88 21t21 80v137h239v-428h-893v166q40 7 52 27t12 75v324h-76z" />
<glyph unicode="&#xa4;" horiz-adv-x="1140" d="M119 369l137 131q-74 104 -74 225q0 124 74 223l-137 133l86 86l133 -131q105 78 233 78q127 0 232 -76l133 129l84 -86l-133 -131q74 -109 74 -225q0 -118 -74 -227l133 -129l-84 -88l-135 133q-98 -76 -230 -76q-129 0 -231 76l-135 -133zM326 725q0 -103 71.5 -175.5 t173.5 -72.5t175 73t73 175q0 101 -73 174.5t-173 73.5q-103 0 -175 -73t-72 -175z" />
<glyph unicode="&#xa5;" horiz-adv-x="1026" d="M27 1200v166h340v-100q0 -43 6.5 -73t27.5 -81l131 -307q31 63 125 289q26 58 35.5 91.5t9.5 76.5v104h297v-166q-33 -8 -53 -31t-43 -69l-174 -373h225v-127h-284l-25 -51v-72h309v-127h-309v-78q0 -56 12.5 -77.5t53.5 -28.5v-166h-396v166q40 7 54 29.5t14 76.5v78 h-307v127h307v64l-27 59h-280v127h223l-166 363q-27 55 -50.5 78.5t-55.5 31.5z" />
<glyph unicode="&#xa6;" horiz-adv-x="628" d="M211 328h207v-688h-207v688zM211 680v686h207v-686h-207z" />
<glyph unicode="&#xa7;" horiz-adv-x="1001" d="M104 567q0 71 34.5 139.5t94.5 112.5q-104 97 -104 242q0 155 106 243.5t277 88.5q205 0 348 -111v-278h-215v94q0 57 -31.5 92t-101.5 35q-68 0 -111 -37.5t-43 -104.5q0 -65 42 -103.5t147 -78.5l74 -27q164 -62 230.5 -149t66.5 -211q0 -81 -37.5 -151.5t-96.5 -110.5 q107 -97 107 -248q0 -166 -104 -265t-298 -99q-102 0 -198.5 26.5t-167.5 75.5v297h223v-96q0 -64 40 -98.5t112 -34.5q81 0 121 47t40 123q0 67 -37.5 111.5t-129.5 78.5l-74 29q-162 61 -238 145.5t-76 222.5zM307 596q0 -73 43 -119t133 -80l152 -59q34 19 56 57t22 78 q0 64 -32 106.5t-103 71.5l-195 78q-34 -20 -55 -57.5t-21 -75.5z" />
<glyph unicode="&#xa8;" horiz-adv-x="897" d="M182 1272q0 41 30 71.5t71 30.5q44 0 74 -30t30 -72q0 -43 -30 -74t-74 -31q-41 0 -71 31t-30 74zM508 1272q0 41 30.5 71.5t73.5 30.5t74 -30.5t31 -71.5q0 -43 -31 -74t-74 -31t-73.5 31t-30.5 74z" />
<glyph unicode="&#xa9;" horiz-adv-x="1527" d="M55 682q0 115 36 223.5t101.5 195.5t152.5 152.5t195.5 101.5t223.5 36t223.5 -36t195.5 -101.5t152.5 -152.5t101.5 -195.5t36 -223.5t-36 -223.5t-101.5 -195.5t-152.5 -152.5t-195.5 -101.5t-223.5 -36t-223.5 36t-195.5 101.5t-152.5 152.5t-101.5 195.5t-36 223.5z M184 682q0 -158 77.5 -291.5t211 -211t291.5 -77.5t291.5 77.5t210.5 211t77 291.5t-77 291.5t-210.5 211t-291.5 77.5t-291.5 -77.5t-211 -211t-77.5 -291.5zM381 674q0 189 109 306.5t286 117.5q146 0 249.5 -89t123.5 -237h-158q-19 86 -72 138.5t-145 52.5 q-116 0 -176.5 -79t-60.5 -206q0 -131 60 -210t181 -79q92 0 146 53t67 138h158q-19 -142 -120.5 -234t-250.5 -92q-177 0 -287 117t-110 303z" />
<glyph unicode="&#xaa;" horiz-adv-x="757" d="M88 913q0 85 53.5 130.5t180.5 84.5l118 37v13q0 43 -16 63.5t-62 20.5q-83 0 -83 -52v-32h-166v151q130 62 264 62q125 0 181 -49.5t56 -159.5v-267q0 -26 7 -36.5t30 -14.5v-110h-205v55q-76 -70 -172 -70t-141 49.5t-45 124.5zM252 928q0 -26 19 -41t55 -15 q58 0 114 60v115l-51 -17q-78 -27 -107.5 -48t-29.5 -54z" />
<glyph unicode="&#xab;" horiz-adv-x="788" d="M96 520l154 279h166l-154 -279l154 -256h-166zM373 520l153 279h166l-153 -279l153 -256h-166z" />
<glyph unicode="&#xac;" d="M150 696v207h894v-571h-204v364h-690z" />
<glyph unicode="&#xad;" horiz-adv-x="675" d="M96 422v209h484v-209h-484z" />
<glyph unicode="&#xae;" horiz-adv-x="942" d="M41 973q0 117 57.5 216t156.5 156.5t216 57.5t216 -57.5t156.5 -156.5t57.5 -216t-57.5 -216t-156.5 -156.5t-216 -57.5t-216 57.5t-156.5 156.5t-57.5 216zM143 973q0 -137 95.5 -232.5t232.5 -95.5t232.5 95.5t95.5 232.5q0 136 -95.5 231.5t-232.5 95.5t-232.5 -95.5 t-95.5 -231.5zM291 758v444h201q79 0 124.5 -34.5t45.5 -108.5q0 -45 -23 -78t-61 -45l102 -178h-131l-82 157h-64v-157h-112zM403 1010h80q66 0 66 53q0 19 -15 32t-40 13h-91v-98z" />
<glyph unicode="&#xaf;" horiz-adv-x="817" d="M137 1204v119h543v-119h-543z" />
<glyph unicode="&#xb0;" horiz-adv-x="759" d="M76 1085q0 127 88.5 216.5t214.5 89.5q127 0 216 -89t89 -217q0 -126 -88.5 -214.5t-214.5 -88.5q-127 0 -216 88.5t-89 214.5zM205 1085q0 -75 50.5 -126.5t123.5 -51.5t124.5 51.5t51.5 126.5t-50.5 127t-125.5 52q-72 0 -123 -52t-51 -127z" />
<glyph unicode="&#xb1;" d="M150 18v209h894v-209h-894zM150 737v207h342v395h206v-395h346v-207h-346v-395h-206v395h-342z" />
<glyph unicode="&#xb2;" horiz-adv-x="729" d="M82 762v125q0 117 40 181t154 132l82 47q53 33 74 59t21 68q0 40 -24.5 65t-68.5 25q-90 0 -90 -61v-80h-178v199q115 73 277 73q270 0 270 -225q0 -84 -35.5 -135.5t-126.5 -108.5l-106 -65q-63 -38 -86 -71t-23 -83v-10h148q31 0 41 11.5t10 41.5v62h174v-250h-553z " />
<glyph unicode="&#xb3;" horiz-adv-x="724" d="M80 821v213h178v-73q0 -87 92 -87q51 0 77 32t26 89q0 65 -31 93t-98 28h-84v144h79q121 0 121 110q0 94 -94 94q-61 0 -78 -26q-6 -8 -6 -45v-62h-180v189q112 75 276 75q267 0 267 -217q0 -139 -119 -178q133 -45 133 -209q0 -58 -16 -102t-42 -71.5t-65 -44.5 t-80.5 -23.5t-91.5 -6.5q-154 0 -264 78z" />
<glyph unicode="&#xb4;" horiz-adv-x="598" d="M162 1169l94 248h195l-170 -248h-119z" />
<glyph unicode="&#xb5;" horiz-adv-x="1044" d="M76 848v156h278q15 -94 15 -252v-420q0 -89 33.5 -128.5t99.5 -39.5q94 0 172 82v504q0 50 -11 69t-49 29v156h293v-752q0 -49 10.5 -67.5t47.5 -28.5v-156h-281v88q-76 -102 -197 -102q-79 0 -118 41v-387h-236v1110q0 51 -10 69.5t-47 28.5z" />
<glyph unicode="&#xb6;" horiz-adv-x="1214" d="M63 924q0 207 123 324.5t349 117.5h618v-111h-92v-1615h-139v1615h-162v-1615h-139v821h-105q-120 0 -209.5 36t-141.5 101t-77 146t-25 180z" />
<glyph unicode="&#xb7;" horiz-adv-x="450" d="M92 694q0 57 38.5 95t94.5 38t95.5 -38.5t39.5 -94.5q0 -55 -39.5 -94t-95.5 -39q-55 0 -94 38.5t-39 94.5z" />
<glyph unicode="&#xb8;" horiz-adv-x="739" d="M145 -215h129v-21q0 -29 22.5 -44t61.5 -15q45 0 65.5 18.5t20.5 45.5v12q0 59 -88 59h-92v201h131v-111h19q90 0 129 -38.5t39 -114.5q0 -75 -59 -117.5t-165 -42.5q-47 0 -115.5 13.5t-97.5 31.5v123z" />
<glyph unicode="&#xb9;" horiz-adv-x="489" d="M94 762v117q36 5 46 16.5t10 52.5v436q0 41 -10 53t-46 17v117h242v-623q0 -41 9 -53t46 -16v-117h-297z" />
<glyph unicode="&#xba;" horiz-adv-x="757" d="M106 999v134q0 131 62.5 194.5t210.5 63.5q146 0 210 -63t64 -200v-129q0 -134 -63 -198t-211 -64q-146 0 -209.5 62.5t-63.5 199.5zM276 1004q0 -75 24.5 -106.5t78.5 -31.5q56 0 79 31t23 104v127q0 70 -23.5 102t-78.5 32q-53 0 -78 -30t-25 -108v-120z" />
<glyph unicode="&#xbb;" horiz-adv-x="788" d="M96 264l154 256l-154 279h166l154 -279l-154 -256h-166zM373 264l153 256l-153 279h166l153 -279l-153 -256h-166z" />
<glyph unicode="&#xbc;" horiz-adv-x="1386" d="M109 557v117q36 5 45.5 16.5t9.5 52.5v437q0 41 -9.5 52.5t-45.5 16.5v117h241v-623q0 -41 9.5 -52.5t46.5 -16.5v-117h-297zM143 0l791 1366h172l-791 -1366h-172zM698 225v125l318 479h203v-464h86v-140h-86v-67q0 -22 7 -31t29 -12v-115h-254v113q27 4 36.5 14t9.5 31 v67h-349zM870 365h177v270z" />
<glyph unicode="&#xbd;" horiz-adv-x="1482" d="M109 557v117q36 5 45.5 16.5t9.5 52.5v437q0 41 -9.5 52.5t-45.5 16.5v117h241v-623q0 -41 9.5 -52.5t46.5 -16.5v-117h-297zM143 0l791 1366h172l-791 -1366h-172zM831 2v125q0 117 40.5 181t154.5 132l82 47q53 33 73.5 59t20.5 68q0 40 -24 65.5t-68 25.5 q-90 0 -90 -62v-80h-178v199q117 74 276 74q271 0 271 -226q0 -84 -35.5 -134.5t-126.5 -108.5l-107 -66q-62 -38 -85 -71t-23 -83v-10h147q31 0 41 11.5t10 41.5v62h174v-250h-553z" />
<glyph unicode="&#xbe;" horiz-adv-x="1570" d="M80 616v213h178v-73q0 -86 92 -86q51 0 77 32t26 89q0 65 -31 92.5t-98 27.5h-84v144h79q121 0 121 110q0 95 -94 95q-60 0 -78 -27q-6 -7 -6 -45v-62h-180v189q113 76 276 76q267 0 267 -217q0 -140 -119 -179q133 -45 133 -209q0 -72 -23 -122t-66 -76.5t-92.5 -37.5 t-113.5 -11q-156 0 -264 77zM324 0l790 1366h172l-790 -1366h-172zM883 225v125l317 479h203v-464h86v-140h-86v-67q0 -21 7.5 -30.5t29.5 -12.5v-115h-254v113q27 4 36 14t9 31v67h-348zM1055 365h176v270z" />
<glyph unicode="&#xbf;" horiz-adv-x="1013" d="M92 340q0 119 46.5 196t154.5 148q43 28 71.5 50.5t49 46.5t31.5 43t17 48t7.5 54.5t1.5 68.5v27h225v-107q0 -138 -40 -213t-154 -153q-86 -58 -119 -104t-33 -111q0 -70 42 -114t126 -44q172 0 172 117v117h244v-301q-168 -127 -418 -127q-203 0 -313.5 90t-110.5 268z M442 1257q0 55 40 94.5t96 39.5q54 0 93.5 -39.5t39.5 -94.5q0 -56 -39 -94.5t-94 -38.5q-56 0 -96 38.5t-40 94.5z" />
<glyph unicode="&#xc0;" horiz-adv-x="1097" d="M45 0v166q24 13 36.5 33t22.5 69l252 1098h371l260 -1092q11 -54 27 -77t43 -31v-166h-369v166q44 15 37 76q0 11 -9 51t-19 79t-11 42h-315l-11 -40q-10 -40 -19 -81t-9 -57q-7 -57 45 -70v-166h-332zM268 1692h226l137 -207h-127zM406 594h243l-88 373q-3 15 -10 48 t-13 62.5t-10 61.5h-8q-5 -43 -31 -168z" />
<glyph unicode="&#xc1;" horiz-adv-x="1097" d="M45 0v166q24 13 36.5 33t22.5 69l252 1098h371l260 -1092q11 -54 27 -77t43 -31v-166h-369v166q44 15 37 76q0 11 -9 51t-19 79t-11 42h-315l-11 -40q-10 -40 -19 -81t-9 -57q-7 -57 45 -70v-166h-332zM406 594h243l-88 373q-3 15 -10 48t-13 62.5t-10 61.5h-8 q-5 -43 -31 -168zM463 1485l137 207h225l-235 -207h-127z" />
<glyph unicode="&#xc2;" horiz-adv-x="1097" d="M45 0v166q24 13 36.5 33t22.5 69l252 1098h371l260 -1092q11 -54 27 -77t43 -31v-166h-369v166q44 15 37 76q0 11 -9 51t-19 79t-11 42h-315l-11 -40q-10 -40 -19 -81t-9 -57q-7 -57 45 -70v-166h-332zM242 1485l215 207h145l219 -207h-182l-109 110l-106 -110h-182z M406 594h243l-88 373q-3 15 -10 48t-13 62.5t-10 61.5h-8q-5 -43 -31 -168z" />
<glyph unicode="&#xc3;" horiz-adv-x="1097" d="M45 0v166q24 13 36.5 33t22.5 69l252 1098h371l260 -1092q11 -54 27 -77t43 -31v-166h-369v166q44 15 37 76q0 11 -9 51t-19 79t-11 42h-315l-11 -40q-10 -40 -19 -81t-9 -57q-7 -57 45 -70v-166h-332zM258 1501q11 81 57.5 138t118.5 57q8 0 15 -0.5t15 -1.5t12.5 -1.5 t14 -3.5t12.5 -4t14 -5t13.5 -5t17 -7t17.5 -7q76 -31 99 -31q27 0 42.5 16t24.5 48h109q-10 -80 -54 -138.5t-112 -58.5q-38 0 -65.5 7.5t-82.5 31.5q-8 3 -25.5 10t-26 10t-20 6t-20.5 3q-49 0 -65 -64h-111zM406 594h243l-88 373q-3 15 -10 48t-13 62.5t-10 61.5h-8 q-5 -43 -31 -168z" />
<glyph unicode="&#xc4;" horiz-adv-x="1097" d="M45 0v166q24 13 36.5 33t22.5 69l252 1098h371l260 -1092q11 -54 27 -77t43 -31v-166h-369v166q44 15 37 76q0 11 -9 51t-19 79t-11 42h-315l-11 -40q-10 -40 -19 -81t-9 -57q-7 -57 45 -70v-166h-332zM281 1587q0 43 29.5 74t70.5 31q44 0 74 -31t30 -74q0 -42 -30 -73 t-74 -31q-41 0 -70.5 30.5t-29.5 73.5zM406 594h243l-88 373q-3 15 -10 48t-13 62.5t-10 61.5h-8q-5 -43 -31 -168zM606 1587q0 43 31 74t74 31t73.5 -31t30.5 -74q0 -42 -31 -73t-73 -31q-43 0 -74 30.5t-31 73.5z" />
<glyph unicode="&#xc5;" horiz-adv-x="1097" d="M45 0v166q24 13 36.5 33t22.5 69l252 1098h371l260 -1092q11 -54 27 -77t43 -31v-166h-369v166q44 15 37 76q0 11 -9 51t-19 79t-11 42h-315l-11 -40q-10 -40 -19 -81t-9 -57q-7 -57 45 -70v-166h-332zM365 1602q0 75 52.5 128.5t127.5 53.5t127.5 -53t52.5 -127 q0 -75 -52.5 -129t-127.5 -54t-127.5 53.5t-52.5 127.5zM406 594h243l-88 373q-3 15 -10 48t-13 62.5t-10 61.5h-8q-5 -43 -31 -168zM467 1602q0 -31 23.5 -53.5t54.5 -22.5q33 0 55.5 22.5t22.5 53.5q0 32 -23.5 55.5t-54.5 23.5q-33 0 -55.5 -23t-22.5 -56z" />
<glyph unicode="&#xc6;" horiz-adv-x="1628" d="M14 0v166q17 8 30 23.5t20 28t20 38.5l520 1110h934v-399h-244v108q0 58 -19.5 79.5t-76.5 21.5h-205v-371h297v-193h-297v-422h176q82 0 103.5 20t21.5 95v125h244v-430h-870v166q40 7 51.5 28t11.5 82v138h-334l-71 -150q-15 -30 -15 -47q0 -39 37 -51v-166h-334z M473 594h258v577z" />
<glyph unicode="&#xc7;" horiz-adv-x="1089" d="M106 436v484q0 91 12 160t42.5 129.5t81 99t129 60.5t184.5 22q257 0 428 -119v-373h-256v188q0 52 -44 82.5t-122 30.5q-105 0 -147.5 -69t-42.5 -205v-477q0 -144 44 -213.5t148 -69.5q166 0 166 131v223h258v-430q-143 -101 -344 -113v-71h19q90 0 128.5 -39 t38.5 -115q0 -75 -59 -117.5t-164 -42.5q-47 0 -115.5 14t-97.5 32v122h129v-20q0 -29 22.5 -44t61.5 -15q46 0 66 18t20 45v12q0 60 -88 60h-92v161q-215 12 -310.5 126.5t-95.5 332.5z" />
<glyph unicode="&#xc8;" horiz-adv-x="1087" d="M96 0v166q41 7 52.5 28t11.5 82v834q0 48 -12.5 65.5t-51.5 24.5v166h903v-399h-243v108q0 58 -19 79.5t-75 21.5h-240v-371h326v-193h-326v-422h211q80 0 101.5 20t21.5 95v125h243v-430h-903zM289 1692h225l137 -207h-127z" />
<glyph unicode="&#xc9;" horiz-adv-x="1087" d="M96 0v166q41 7 52.5 28t11.5 82v834q0 48 -12.5 65.5t-51.5 24.5v166h903v-399h-243v108q0 58 -19 79.5t-75 21.5h-240v-371h326v-193h-326v-422h211q80 0 101.5 20t21.5 95v125h243v-430h-903zM463 1485l137 207h225l-235 -207h-127z" />
<glyph unicode="&#xca;" horiz-adv-x="1087" d="M96 0v166q41 7 52.5 28t11.5 82v834q0 48 -12.5 65.5t-51.5 24.5v166h903v-399h-243v108q0 58 -19 79.5t-75 21.5h-240v-371h326v-193h-326v-422h211q80 0 101.5 20t21.5 95v125h243v-430h-903zM258 1485l215 207h145l220 -207h-183l-108 110l-107 -110h-182z" />
<glyph unicode="&#xcb;" horiz-adv-x="1087" d="M96 0v166q41 7 52.5 28t11.5 82v834q0 48 -12.5 65.5t-51.5 24.5v166h903v-399h-243v108q0 58 -19 79.5t-75 21.5h-240v-371h326v-193h-326v-422h211q80 0 101.5 20t21.5 95v125h243v-430h-903zM291 1587q0 43 29.5 74t70.5 31q44 0 74.5 -31t30.5 -74q0 -42 -30.5 -73 t-74.5 -31q-41 0 -70.5 30.5t-29.5 73.5zM616 1587q0 43 31 74t74 31t73.5 -31t30.5 -74q0 -42 -31 -73t-73 -31q-43 0 -74 30.5t-31 73.5z" />
<glyph unicode="&#xcc;" horiz-adv-x="577" d="M29 1692h225l137 -207h-127zM96 0v166q39 7 51.5 27t12.5 75v830q0 56 -12 75.5t-52 26.5v166h387v-166q-40 -7 -50.5 -26.5t-10.5 -75.5v-830q0 -57 10.5 -76t50.5 -26v-166h-387z" />
<glyph unicode="&#xcd;" horiz-adv-x="577" d="M96 0v166q39 7 51.5 27t12.5 75v830q0 56 -12 75.5t-52 26.5v166h387v-166q-40 -7 -50.5 -26.5t-10.5 -75.5v-830q0 -57 10.5 -76t50.5 -26v-166h-387zM201 1485l137 207h225l-235 -207h-127z" />
<glyph unicode="&#xce;" horiz-adv-x="577" d="M2 1485l215 207h145l220 -207h-183l-108 110l-107 -110h-182zM96 0v166q39 7 51.5 27t12.5 75v830q0 56 -12 75.5t-52 26.5v166h387v-166q-40 -7 -50.5 -26.5t-10.5 -75.5v-830q0 -57 10.5 -76t50.5 -26v-166h-387z" />
<glyph unicode="&#xcf;" horiz-adv-x="577" d="M27 1587q0 43 29.5 74t70.5 31q44 0 74 -31t30 -74q0 -42 -30 -73t-74 -31q-41 0 -70.5 30.5t-29.5 73.5zM96 0v166q39 7 51.5 27t12.5 75v830q0 56 -12 75.5t-52 26.5v166h387v-166q-40 -7 -50.5 -26.5t-10.5 -75.5v-830q0 -57 10.5 -76t50.5 -26v-166h-387zM352 1587 q0 43 31 74t74 31t73.5 -31t30.5 -74q0 -42 -31 -73t-73 -31q-43 0 -74 30.5t-31 73.5z" />
<glyph unicode="&#xd0;" horiz-adv-x="1142" d="M41 614v195h119v289q0 56 -12 75.5t-52 26.5v166h506q225 0 330.5 -109.5t105.5 -359.5v-436q0 -238 -106 -349.5t-328 -111.5h-508v166q39 7 51.5 27t12.5 75v346h-119zM422 195h129q129 0 177 66t48 212v442q0 133 -51.5 196t-167.5 63h-135v-365h174v-195h-174v-419z " />
<glyph unicode="&#xd1;" horiz-adv-x="1200" d="M96 0v166q39 7 51.5 27t12.5 75v830q0 56 -12 75.5t-52 26.5v166h324l414 -887v619q0 58 -12.5 78t-51.5 24v166h342v-166q-39 -9 -50 -28t-11 -74v-1098h-256l-367 764q-43 97 -57 133v-629q0 -58 11 -78t50 -24v-166h-336zM317 1501q11 81 58 138t119 57q8 0 15 -0.5 t15 -1.5t12.5 -1.5t14 -3.5t12.5 -4t14 -5t13.5 -5t17 -7t17.5 -7q76 -31 98 -31q49 0 68 64h108q-10 -80 -54 -138.5t-112 -58.5q-37 0 -64 7.5t-83 31.5q-8 3 -25.5 10t-26 10t-20 6t-20.5 3q-50 0 -66 -64h-111z" />
<glyph unicode="&#xd2;" horiz-adv-x="1124" d="M106 434v496q0 109 21.5 189.5t72 144t142.5 95.5t225 32q126 0 215 -31.5t140.5 -93t74.5 -142.5t23 -190v-502q0 -223 -105 -340t-348 -117q-248 0 -354.5 114.5t-106.5 344.5zM307 1692h225l138 -207h-127zM371 444q0 -136 44 -207t152 -71q100 0 143.5 71t43.5 207 v478q0 135 -43.5 206.5t-143.5 71.5q-58 0 -97.5 -20t-60.5 -59.5t-29.5 -86.5t-8.5 -112v-478z" />
<glyph unicode="&#xd3;" horiz-adv-x="1124" d="M106 434v496q0 109 21.5 189.5t72 144t142.5 95.5t225 32q126 0 215 -31.5t140.5 -93t74.5 -142.5t23 -190v-502q0 -223 -105 -340t-348 -117q-248 0 -354.5 114.5t-106.5 344.5zM371 444q0 -136 44 -207t152 -71q100 0 143.5 71t43.5 207v478q0 135 -43.5 206.5 t-143.5 71.5q-58 0 -97.5 -20t-60.5 -59.5t-29.5 -86.5t-8.5 -112v-478zM483 1485l138 207h225l-236 -207h-127z" />
<glyph unicode="&#xd4;" horiz-adv-x="1124" d="M106 434v496q0 109 21.5 189.5t72 144t142.5 95.5t225 32q126 0 215 -31.5t140.5 -93t74.5 -142.5t23 -190v-502q0 -223 -105 -340t-348 -117q-248 0 -354.5 114.5t-106.5 344.5zM287 1485l215 207h145l219 -207h-182l-109 110l-106 -110h-182zM371 444q0 -136 44 -207 t152 -71q100 0 143.5 71t43.5 207v478q0 135 -43.5 206.5t-143.5 71.5q-58 0 -97.5 -20t-60.5 -59.5t-29.5 -86.5t-8.5 -112v-478z" />
<glyph unicode="&#xd5;" horiz-adv-x="1124" d="M106 434v496q0 109 21.5 189.5t72 144t142.5 95.5t225 32q126 0 215 -31.5t140.5 -93t74.5 -142.5t23 -190v-502q0 -223 -105 -340t-348 -117q-248 0 -354.5 114.5t-106.5 344.5zM279 1501q11 81 57.5 138t118.5 57q8 0 15 -0.5t15 -1.5t12.5 -1.5t14 -3.5t12.5 -4t14 -5 t13.5 -5t17 -7t17.5 -7q76 -31 98 -31q49 0 68 64h108q-10 -80 -54 -138.5t-112 -58.5q-37 0 -64 7.5t-83 31.5q-8 3 -25.5 10t-26 10t-20 6t-20.5 3q-50 0 -66 -64h-110zM371 444q0 -136 44 -207t152 -71q100 0 143.5 71t43.5 207v478q0 135 -43.5 206.5t-143.5 71.5 q-58 0 -97.5 -20t-60.5 -59.5t-29.5 -86.5t-8.5 -112v-478z" />
<glyph unicode="&#xd6;" horiz-adv-x="1124" d="M106 434v496q0 109 21.5 189.5t72 144t142.5 95.5t225 32q126 0 215 -31.5t140.5 -93t74.5 -142.5t23 -190v-502q0 -223 -105 -340t-348 -117q-248 0 -354.5 114.5t-106.5 344.5zM309 1587q0 43 30 74t71 31q44 0 74 -31t30 -74q0 -42 -30 -73t-74 -31q-41 0 -71 30.5 t-30 73.5zM371 444q0 -136 44 -207t152 -71q100 0 143.5 71t43.5 207v478q0 135 -43.5 206.5t-143.5 71.5q-58 0 -97.5 -20t-60.5 -59.5t-29.5 -86.5t-8.5 -112v-478zM635 1587q0 43 30.5 74t73.5 31t74 -31t31 -74q0 -41 -31 -72.5t-74 -31.5t-73.5 30.5t-30.5 73.5z" />
<glyph unicode="&#xd7;" d="M158 332l295 297l-295 297l145 147l295 -297l295 297l145 -147l-295 -297l295 -297l-145 -146l-295 295l-295 -295z" />
<glyph unicode="&#xd8;" horiz-adv-x="1124" d="M68 25l90 141q-52 98 -52 268v496q0 109 21.5 189.5t72 144t142.5 95.5t225 32q213 0 324 -97l78 119l96 -61l-98 -152q53 -103 53 -266v-502q0 -223 -105 -340t-348 -117q-221 0 -336 95l-69 -107zM350 461l402 618q-46 121 -185 121q-124 0 -170.5 -72t-46.5 -206v-461 zM373 287q46 -121 194 -121q112 0 160.5 71t48.5 207v463z" />
<glyph unicode="&#xd9;" horiz-adv-x="1146" d="M80 1200v166h383v-164q-38 -10 -48 -27.5t-12 -64.5v-711q0 -237 181 -237q96 0 135 56.5t39 180.5l2 693q0 60 -10.5 80.5t-47.5 29.5v164h361v-166q-39 -7 -50.5 -26t-11.5 -66v-692q0 -82 -10.5 -145.5t-39 -122t-75 -96.5t-122 -60.5t-176.5 -22.5q-227 0 -332 110.5 t-105 321.5v697q-2 56 -12.5 75.5t-48.5 26.5zM336 1692h225l137 -207h-127z" />
<glyph unicode="&#xda;" horiz-adv-x="1146" d="M80 1200v166h383v-164q-38 -10 -48 -27.5t-12 -64.5v-711q0 -237 181 -237q96 0 135 56.5t39 180.5l2 693q0 60 -10.5 80.5t-47.5 29.5v164h361v-166q-39 -7 -50.5 -26t-11.5 -66v-692q0 -82 -10.5 -145.5t-39 -122t-75 -96.5t-122 -60.5t-176.5 -22.5q-227 0 -332 110.5 t-105 321.5v697q-2 56 -12.5 75.5t-48.5 26.5zM506 1485l137 207h225l-235 -207h-127z" />
<glyph unicode="&#xdb;" horiz-adv-x="1146" d="M80 1200v166h383v-164q-38 -10 -48 -27.5t-12 -64.5v-711q0 -237 181 -237q96 0 135 56.5t39 180.5l2 693q0 60 -10.5 80.5t-47.5 29.5v164h361v-166q-39 -7 -50.5 -26t-11.5 -66v-692q0 -82 -10.5 -145.5t-39 -122t-75 -96.5t-122 -60.5t-176.5 -22.5q-227 0 -332 110.5 t-105 321.5v697q-2 56 -12.5 75.5t-48.5 26.5zM303 1485l215 207h146l219 -207h-183l-108 110l-107 -110h-182z" />
<glyph unicode="&#xdc;" horiz-adv-x="1146" d="M80 1200v166h383v-164q-38 -10 -48 -27.5t-12 -64.5v-711q0 -237 181 -237q96 0 135 56.5t39 180.5l2 693q0 60 -10.5 80.5t-47.5 29.5v164h361v-166q-39 -7 -50.5 -26t-11.5 -66v-692q0 -82 -10.5 -145.5t-39 -122t-75 -96.5t-122 -60.5t-176.5 -22.5q-227 0 -332 110.5 t-105 321.5v697q-2 56 -12.5 75.5t-48.5 26.5zM322 1587q0 43 29.5 74t70.5 31q44 0 74 -31t30 -74q0 -42 -30 -73t-74 -31q-41 0 -70.5 30.5t-29.5 73.5zM647 1587q0 43 31 74t74 31t73.5 -31t30.5 -74q0 -42 -31 -73t-73 -31q-43 0 -74 30.5t-31 73.5z" />
<glyph unicode="&#xdd;" horiz-adv-x="1026" d="M27 1200v166h340v-100q0 -43 7 -73.5t27 -80.5l131 -307l125 289q17 39 24 58t14 49.5t7 60.5v104h297v-166q-33 -8 -53 -31t-43 -69l-258 -551v-268q0 -63 12 -85.5t54 -29.5v-166h-396v166q41 7 54.5 31t13.5 84v260l-248 549q-27 55 -51 78.5t-57 31.5zM428 1485 l137 207h226l-236 -207h-127z" />
<glyph unicode="&#xde;" horiz-adv-x="1107" d="M96 0v166q42 7 53 26.5t11 83.5v838q0 43 -13 61t-51 25v166h326v-225h178q75 0 137.5 -11t117.5 -38t93 -68t60 -103.5t22 -142.5v-28q0 -195 -112.5 -289t-317.5 -94h-178v-109q0 -49 12 -67t58 -25v-166h-396zM422 555h131q110 2 161.5 46t51.5 149v14q0 95 -49 140.5 t-160 45.5h-135v-395z" />
<glyph unicode="&#xdf;" horiz-adv-x="1030" d="M82 0v156q37 10 48 29t11 69v725q0 80 9.5 139.5t35 112.5t68.5 86.5t112 52.5t164 19q206 0 300 -79t94 -266q0 -120 -42.5 -186.5t-127.5 -95.5q194 -47 194 -275v-161q0 -165 -83 -245.5t-257 -80.5h-137v160h64q96 0 137 51t41 154v104q0 109 -46 156t-141 47h-55 v157h57q89 0 126.5 48.5t37.5 123.5v43q0 183 -155 183q-87 0 -125.5 -54.5t-38.5 -183.5v-989h-291z" />
<glyph unicode="&#xe0;" horiz-adv-x="989" d="M86 252q0 123 75 194.5t220 120.5l250 88v31q0 94 -27.5 136t-105.5 42q-82 0 -114 -25t-32 -83v-66h-221v250q95 44 181.5 64t201.5 20q189 0 268.5 -78t79.5 -254v-438q0 -50 11 -69t47 -29v-156h-281v96q-136 -116 -279 -116q-135 0 -204.5 71.5t-69.5 200.5z M266 1417h197l94 -248h-117zM326 272q0 -50 32 -78t84 -28q95 0 189 98v221l-99 -36q-115 -45 -160.5 -81.5t-45.5 -95.5z" />
<glyph unicode="&#xe1;" horiz-adv-x="989" d="M86 252q0 123 75 194.5t220 120.5l250 88v31q0 94 -27.5 136t-105.5 42q-82 0 -114 -25t-32 -83v-66h-221v250q95 44 181.5 64t201.5 20q189 0 268.5 -78t79.5 -254v-438q0 -50 11 -69t47 -29v-156h-281v96q-136 -116 -279 -116q-135 0 -204.5 71.5t-69.5 200.5zM326 272 q0 -50 32 -78t84 -28q95 0 189 98v221l-99 -36q-115 -45 -160.5 -81.5t-45.5 -95.5zM420 1167l94 248h195l-170 -248h-119z" />
<glyph unicode="&#xe2;" horiz-adv-x="989" d="M86 252q0 123 75 194.5t220 120.5l250 88v31q0 94 -27.5 136t-105.5 42q-82 0 -114 -25t-32 -83v-66h-221v250q95 44 181.5 64t201.5 20q189 0 268.5 -78t79.5 -254v-438q0 -50 11 -69t47 -29v-156h-281v96q-136 -116 -279 -116q-135 0 -204.5 71.5t-69.5 200.5z M242 1153l174 248h145l178 -248h-157l-93 137l-90 -137h-157zM326 272q0 -50 32 -78t84 -28q95 0 189 98v221l-99 -36q-115 -45 -160.5 -81.5t-45.5 -95.5z" />
<glyph unicode="&#xe3;" horiz-adv-x="989" d="M86 252q0 123 75 194.5t220 120.5l250 88v31q0 94 -27.5 136t-105.5 42q-82 0 -114 -25t-32 -83v-66h-221v250q95 44 181.5 64t201.5 20q189 0 268.5 -78t79.5 -254v-438q0 -50 11 -69t47 -29v-156h-281v96q-136 -116 -279 -116q-135 0 -204.5 71.5t-69.5 200.5z M193 1186q11 80 57.5 136t118.5 56q34 0 59 -7t72 -28q73 -30 98 -30q50 0 68 63h108q-10 -80 -54 -138t-112 -58q-37 0 -64 7.5t-83 31.5q-74 28 -92 28q-51 0 -66 -61h-110zM326 272q0 -50 32 -78t84 -28q95 0 189 98v221l-99 -36q-115 -45 -160.5 -81.5t-45.5 -95.5z" />
<glyph unicode="&#xe4;" horiz-adv-x="989" d="M86 252q0 123 75 194.5t220 120.5l250 88v31q0 94 -27.5 136t-105.5 42q-82 0 -114 -25t-32 -83v-66h-221v250q95 44 181.5 64t201.5 20q189 0 268.5 -78t79.5 -254v-438q0 -50 11 -69t47 -29v-156h-281v96q-136 -116 -279 -116q-135 0 -204.5 71.5t-69.5 200.5z M217 1272q0 41 29.5 71.5t70.5 30.5q44 0 74.5 -30t30.5 -72q0 -43 -30.5 -74t-74.5 -31q-41 0 -70.5 31t-29.5 74zM326 272q0 -50 32 -78t84 -28q95 0 189 98v221l-99 -36q-115 -45 -160.5 -81.5t-45.5 -95.5zM543 1272q0 41 30.5 71.5t73.5 30.5t74 -30.5t31 -71.5 q0 -43 -31 -74t-74 -31t-73.5 31t-30.5 74z" />
<glyph unicode="&#xe5;" horiz-adv-x="989" d="M86 252q0 123 75 194.5t220 120.5l250 88v31q0 94 -27.5 136t-105.5 42q-82 0 -114 -25t-32 -83v-66h-221v250q95 44 181.5 64t201.5 20q189 0 268.5 -78t79.5 -254v-438q0 -50 11 -69t47 -29v-156h-281v96q-136 -116 -279 -116q-135 0 -204.5 71.5t-69.5 200.5z M295 1286q0 75 52.5 128.5t127.5 53.5t127.5 -53t52.5 -127q0 -75 -52.5 -128.5t-127.5 -53.5t-127.5 53t-52.5 127zM326 272q0 -50 32 -78t84 -28q95 0 189 98v221l-99 -36q-115 -45 -160.5 -81.5t-45.5 -95.5zM397 1286q0 -31 23.5 -54.5t54.5 -23.5q33 0 55.5 23.5 t22.5 54.5t-23.5 55.5t-54.5 24.5q-33 0 -55.5 -24t-22.5 -56z" />
<glyph unicode="&#xe6;" horiz-adv-x="1488" d="M86 252q0 127 78.5 198t255.5 132l211 73v31q0 92 -29 135t-104 43q-82 0 -114 -25t-32 -83v-66h-221v250q186 84 365 84q95 0 156 -24t104 -78q91 102 268 102q113 0 189.5 -26.5t117.5 -81t57.5 -123t16.5 -166.5v-172h-543v-103q0 -106 40 -159.5t126 -53.5 q67 0 100 28t33 89v68h236v-242q-149 -102 -359 -102q-226 0 -333 139q-81 -70 -159.5 -104.5t-172.5 -34.5q-141 0 -214 74t-73 198zM326 270q0 -47 31.5 -75.5t88.5 -28.5q51 0 104.5 31t86.5 73q-6 75 -6 95v120l-99 -36q-115 -45 -160.5 -82.5t-45.5 -96.5zM862 616h309 v37q-3 211 -151 211q-75 0 -116.5 -51t-41.5 -149v-48z" />
<glyph unicode="&#xe7;" horiz-adv-x="966" d="M90 381v256q0 71 10 126.5t37 106t71 83t114.5 52t164.5 19.5q213 0 375 -111v-256h-223v115q0 42 -36 67t-93 25q-94 0 -139 -51.5t-45 -187.5v-246q0 -132 44 -186t140 -54q57 0 94 26.5t37 78.5v125h223v-281q-133 -98 -309 -106v-52h18q90 0 129 -38.5t39 -114.5 q0 -75 -59 -117.5t-164 -42.5q-47 0 -115.5 13.5t-97.5 31.5v123h129v-21q0 -29 22.5 -44t61.5 -15q45 0 65.5 18.5t20.5 45.5v12q0 59 -88 59h-92v144q-97 8 -162.5 37.5t-103 81.5t-53 118.5t-15.5 159.5z" />
<glyph unicode="&#xe8;" horiz-adv-x="974" d="M90 360v285q0 196 95.5 287.5t306.5 91.5q120 0 199.5 -26.5t122 -81t59 -122.5t16.5 -167v-172h-563v-99q0 -109 42 -163t134 -54q75 0 110 27.5t35 89.5v68h236v-240q-80 -54 -169.5 -79t-211.5 -25q-227 0 -319.5 93t-92.5 287zM270 1417h197l94 -248h-117zM326 616 h329v37q-2 102 -38.5 156.5t-122.5 54.5q-88 0 -128 -57.5t-40 -171.5v-19z" />
<glyph unicode="&#xe9;" horiz-adv-x="974" d="M90 360v285q0 196 95.5 287.5t306.5 91.5q120 0 199.5 -26.5t122 -81t59 -122.5t16.5 -167v-172h-563v-99q0 -109 42 -163t134 -54q75 0 110 27.5t35 89.5v68h236v-240q-80 -54 -169.5 -79t-211.5 -25q-227 0 -319.5 93t-92.5 287zM326 616h329v37q-2 102 -38.5 156.5 t-122.5 54.5q-88 0 -128 -57.5t-40 -171.5v-19zM418 1169l94 248h195l-170 -248h-119z" />
<glyph unicode="&#xea;" horiz-adv-x="974" d="M90 360v285q0 196 95.5 287.5t306.5 91.5q120 0 199.5 -26.5t122 -81t59 -122.5t16.5 -167v-172h-563v-99q0 -109 42 -163t134 -54q75 0 110 27.5t35 89.5v68h236v-240q-80 -54 -169.5 -79t-211.5 -25q-227 0 -319.5 93t-92.5 287zM231 1169l175 248h145l178 -248h-158 l-92 138l-90 -138h-158zM326 616h329v37q-2 102 -38.5 156.5t-122.5 54.5q-88 0 -128 -57.5t-40 -171.5v-19z" />
<glyph unicode="&#xeb;" horiz-adv-x="974" d="M90 360v285q0 196 95.5 287.5t306.5 91.5q120 0 199.5 -26.5t122 -81t59 -122.5t16.5 -167v-172h-563v-99q0 -109 42 -163t134 -54q75 0 110 27.5t35 89.5v68h236v-240q-80 -54 -169.5 -79t-211.5 -25q-227 0 -319.5 93t-92.5 287zM215 1272q0 41 29.5 71.5t70.5 30.5 q44 0 74.5 -30t30.5 -72q0 -43 -30.5 -74t-74.5 -31q-41 0 -70.5 31t-29.5 74zM326 616h329v37q-2 102 -38.5 156.5t-122.5 54.5q-88 0 -128 -57.5t-40 -171.5v-19zM541 1272q0 41 30.5 71.5t73.5 30.5t74 -30.5t31 -71.5q0 -43 -31 -74t-74 -31t-73.5 31t-30.5 74z" />
<glyph unicode="&#xec;" horiz-adv-x="512" d="M16 1417h197l94 -248h-117zM86 0v156q36 10 46.5 29t10.5 69v496q-2 51 -11.5 69.5t-45.5 28.5v156h291v-750q0 -51 10 -69.5t47 -28.5v-156h-348z" />
<glyph unicode="&#xed;" horiz-adv-x="512" d="M86 0v156q36 10 46.5 29t10.5 69v496q-2 51 -11.5 69.5t-45.5 28.5v156h291v-750q0 -51 10 -69.5t47 -28.5v-156h-348zM174 1169l94 248h195l-170 -248h-119z" />
<glyph unicode="&#xee;" horiz-adv-x="512" d="M-10 1169l174 248h145l178 -248h-157l-92 138l-91 -138h-157zM86 0v156q36 10 46.5 29t10.5 69v496q-2 51 -11.5 69.5t-45.5 28.5v156h291v-750q0 -51 10 -69.5t47 -28.5v-156h-348z" />
<glyph unicode="&#xef;" horiz-adv-x="512" d="M-14 1272q0 41 29.5 71.5t70.5 30.5q44 0 74 -30t30 -72q0 -43 -30 -74t-74 -31q-41 0 -70.5 31t-29.5 74zM86 0v156q36 10 46.5 29t10.5 69v496q-2 51 -11.5 69.5t-45.5 28.5v156h291v-750q0 -51 10 -69.5t47 -28.5v-156h-348zM311 1272q0 41 31 71.5t74 30.5 t73.5 -30.5t30.5 -71.5q0 -43 -30.5 -74t-73.5 -31t-74 31t-31 74z" />
<glyph unicode="&#xf0;" horiz-adv-x="991" d="M90 381v211q0 196 90.5 295.5t261.5 99.5q61 0 119 -22.5t92 -59.5h6q-25 122 -127 228l-190 -78l-76 92l191 80q-83 76 -113 98l205 68q43 -34 110 -97l144 62l76 -92l-144 -64q90 -113 129 -238.5t39 -304.5v-278q0 -209 -95 -305t-312 -96q-210 0 -308 93.5t-98 307.5 zM326 379q0 -132 40 -186t130 -54q93 0 132.5 54t39.5 182v221q0 124 -40 177.5t-132 53.5q-86 0 -128 -51t-42 -186v-211z" />
<glyph unicode="&#xf1;" horiz-adv-x="1064" d="M86 0v156q36 10 46.5 29t10.5 69v498q-2 49 -12 67.5t-45 28.5v156h285v-84q120 98 266 98q73 0 127.5 -19t85 -48t49 -71t24 -80t5.5 -83v-463q0 -50 10 -69t45 -29v-156h-276q-15 110 -15 254v405q0 96 -34 137.5t-111 41.5q-49 0 -95 -24.5t-75 -57.5v-502 q0 -51 10 -69.5t47 -28.5v-156h-348zM229 1186q11 80 58 136t119 56q34 0 59 -7t72 -28q73 -30 98 -30q49 0 67 63h109q-10 -80 -54 -138t-112 -58q-37 0 -64 7.5t-83 31.5q-74 28 -92 28q-51 0 -66 -61h-111z" />
<glyph unicode="&#xf2;" horiz-adv-x="960" d="M90 381v248q0 76 9.5 133t35.5 108.5t69 83.5t112.5 51t164.5 19q115 0 192 -26t120.5 -79.5t61 -124t17.5 -171.5v-242q0 -100 -17 -170t-59.5 -124.5t-120 -80.5t-194.5 -26q-115 0 -192 25.5t-120.5 79t-61 124t-17.5 172.5zM268 1417h197l94 -248h-117zM326 379 q0 -131 37.5 -185.5t117.5 -54.5q83 0 119.5 54t36.5 182v256q0 124 -36.5 178.5t-119.5 54.5q-80 0 -117.5 -51t-37.5 -186v-248z" />
<glyph unicode="&#xf3;" horiz-adv-x="960" d="M90 381v248q0 76 9.5 133t35.5 108.5t69 83.5t112.5 51t164.5 19q115 0 192 -26t120.5 -79.5t61 -124t17.5 -171.5v-242q0 -100 -17 -170t-59.5 -124.5t-120 -80.5t-194.5 -26q-115 0 -192 25.5t-120.5 79t-61 124t-17.5 172.5zM326 379q0 -131 37.5 -185.5t117.5 -54.5 q83 0 119.5 54t36.5 182v256q0 124 -36.5 178.5t-119.5 54.5q-80 0 -117.5 -51t-37.5 -186v-248zM426 1169l94 248h195l-170 -248h-119z" />
<glyph unicode="&#xf4;" horiz-adv-x="960" d="M90 381v248q0 76 9.5 133t35.5 108.5t69 83.5t112.5 51t164.5 19q115 0 192 -26t120.5 -79.5t61 -124t17.5 -171.5v-242q0 -100 -17 -170t-59.5 -124.5t-120 -80.5t-194.5 -26q-115 0 -192 25.5t-120.5 79t-61 124t-17.5 172.5zM242 1169l174 248h145l178 -248h-157 l-93 138l-90 -138h-157zM326 379q0 -131 37.5 -185.5t117.5 -54.5q83 0 119.5 54t36.5 182v256q0 124 -36.5 178.5t-119.5 54.5q-80 0 -117.5 -51t-37.5 -186v-248z" />
<glyph unicode="&#xf5;" horiz-adv-x="960" d="M90 381v248q0 76 9.5 133t35.5 108.5t69 83.5t112.5 51t164.5 19q115 0 192 -26t120.5 -79.5t61 -124t17.5 -171.5v-242q0 -100 -17 -170t-59.5 -124.5t-120 -80.5t-194.5 -26q-115 0 -192 25.5t-120.5 79t-61 124t-17.5 172.5zM195 1186q11 80 57.5 136t118.5 56 q34 0 59 -7t72 -28q73 -30 98 -30q50 0 68 63h108q-10 -80 -54 -138t-112 -58q-37 0 -64 7.5t-83 31.5q-74 28 -92 28q-51 0 -66 -61h-110zM326 379q0 -131 37.5 -185.5t117.5 -54.5q83 0 119.5 54t36.5 182v256q0 124 -36.5 178.5t-119.5 54.5q-80 0 -117.5 -51t-37.5 -186 v-248z" />
<glyph unicode="&#xf6;" horiz-adv-x="960" d="M90 381v248q0 76 9.5 133t35.5 108.5t69 83.5t112.5 51t164.5 19q115 0 192 -26t120.5 -79.5t61 -124t17.5 -171.5v-242q0 -100 -17 -170t-59.5 -124.5t-120 -80.5t-194.5 -26q-115 0 -192 25.5t-120.5 79t-61 124t-17.5 172.5zM227 1272q0 41 30 71.5t71 30.5 q44 0 74 -30t30 -72q0 -43 -30 -74t-74 -31q-41 0 -71 31t-30 74zM326 379q0 -131 37.5 -185.5t117.5 -54.5q83 0 119.5 54t36.5 182v256q0 124 -36.5 178.5t-119.5 54.5q-80 0 -117.5 -51t-37.5 -186v-248zM553 1272q0 41 30.5 71.5t73.5 30.5t74 -30.5t31 -71.5 q0 -43 -31 -74t-74 -31t-73.5 31t-30.5 74z" />
<glyph unicode="&#xf7;" d="M150 528v207h894v-207h-894zM457 221q0 60 39.5 102t101.5 42t99.5 -40.5t37.5 -101.5q0 -63 -41 -102t-96 -39q-57 0 -99 41t-42 98zM457 1036q0 59 40 102.5t101 43.5q62 0 99.5 -41.5t37.5 -102.5q0 -63 -40.5 -101t-96.5 -38q-57 0 -99 40t-42 97z" />
<glyph unicode="&#xf8;" horiz-adv-x="960" d="M35 16l96 125q-41 83 -41 240v248q0 76 9.5 133t35.5 108.5t69 83.5t112.5 51t164.5 19q177 0 271 -66l71 95l86 -68l-86 -111q49 -92 49 -251v-242q0 -100 -17 -170t-59.5 -124.5t-120 -80.5t-194.5 -26q-191 0 -282 73l-78 -102zM307 373l318 420q-39 71 -144 71 q-90 0 -132 -51t-42 -186v-248v-6zM330 225q37 -86 151 -86q92 0 133 54.5t41 181.5v256v20z" />
<glyph unicode="&#xf9;" horiz-adv-x="1044" d="M76 848v156h278q15 -94 15 -252v-408q0 -95 32 -137.5t101 -42.5q52 0 98 25t74 57v504q0 50 -11 69t-49 29v156h293v-752q0 -49 10.5 -67.5t47.5 -28.5v-156h-285v88q-124 -102 -268 -102q-279 0 -279 290v474q0 51 -10 69.5t-47 28.5zM274 1417h197l94 -248h-116z" />
<glyph unicode="&#xfa;" horiz-adv-x="1044" d="M76 848v156h278q15 -94 15 -252v-408q0 -95 32 -137.5t101 -42.5q52 0 98 25t74 57v504q0 50 -11 69t-49 29v156h293v-752q0 -49 10.5 -67.5t47.5 -28.5v-156h-285v88q-124 -102 -268 -102q-279 0 -279 290v474q0 51 -10 69.5t-47 28.5zM428 1169l94 248h195l-170 -248 h-119z" />
<glyph unicode="&#xfb;" horiz-adv-x="1044" d="M76 848v156h278q15 -94 15 -252v-408q0 -95 32 -137.5t101 -42.5q52 0 98 25t74 57v504q0 50 -11 69t-49 29v156h293v-752q0 -49 10.5 -67.5t47.5 -28.5v-156h-285v88q-124 -102 -268 -102q-279 0 -279 290v474q0 51 -10 69.5t-47 28.5zM248 1169l174 248h145l178 -248 h-157l-92 138l-90 -138h-158z" />
<glyph unicode="&#xfc;" horiz-adv-x="1044" d="M76 848v156h278q15 -94 15 -252v-408q0 -95 32 -137.5t101 -42.5q52 0 98 25t74 57v504q0 50 -11 69t-49 29v156h293v-752q0 -49 10.5 -67.5t47.5 -28.5v-156h-285v88q-124 -102 -268 -102q-279 0 -279 290v474q0 51 -10 69.5t-47 28.5zM233 1272q0 41 30 71.5t71 30.5 q44 0 74 -30t30 -72q0 -43 -30 -74t-74 -31q-41 0 -71 31t-30 74zM559 1272q0 41 31 71.5t74 30.5t73.5 -30.5t30.5 -71.5q0 -43 -30.5 -74t-73.5 -31t-74 31t-31 74z" />
<glyph unicode="&#xfd;" horiz-adv-x="911" d="M18 848v156h338v-156q-39 -6 -39 -41q0 -17 7 -31l129 -381q5 -13 14.5 -46t15.5 -50q2 8 13 47t16 53l113 379q4 20 4 27q0 40 -43 43v156h305v-156q-25 -7 -38 -27t-26 -59l-258 -842q-22 -73 -43 -121t-53 -86.5t-77 -56.5t-107 -18q-84 0 -133 22v147l16 -3 q16 -3 25 -3q46 0 78.5 26.5t54.5 92.5l24 76l-274 788q-12 32 -26 46.5t-36 17.5zM375 1169l94 248h195l-170 -248h-119z" />
<glyph unicode="&#xfe;" horiz-adv-x="1028" d="M82 -207q36 10 46.5 29.5t10.5 66.5v1223q0 50 -10.5 69t-46.5 29v156h291v-436q128 88 250 88q164 0 239.5 -92t75.5 -271v-333q0 -160 -79.5 -249t-233.5 -89q-71 0 -128.5 21.5t-123.5 60.5v-172q0 -51 11 -70t48 -29v-155h-350v153zM373 227q69 -63 168 -63 q92 0 126.5 57t34.5 170v215q0 133 -41 182.5t-120 49.5q-90 0 -168 -66v-545z" />
<glyph unicode="&#xff;" horiz-adv-x="911" d="M18 848v156h338v-156q-39 -6 -39 -41q0 -17 7 -31l129 -381q5 -13 14.5 -46t15.5 -50q2 8 13 47t16 53l113 379q4 20 4 27q0 40 -43 43v156h305v-156q-25 -7 -38 -27t-26 -59l-258 -842q-22 -73 -43 -121t-53 -86.5t-77 -56.5t-107 -18q-84 0 -133 22v147l16 -3 q16 -3 25 -3q46 0 78.5 26.5t54.5 92.5l24 76l-274 788q-12 32 -26 46.5t-36 17.5zM190 1272q0 41 30 71.5t71 30.5q44 0 74 -30t30 -72q0 -43 -30 -74t-74 -31q-41 0 -71 31t-30 74zM516 1272q0 41 31 71.5t74 30.5t73.5 -30.5t30.5 -71.5q0 -43 -30.5 -74t-73.5 -31 t-74 31t-31 74z" />
<glyph unicode="&#x152;" horiz-adv-x="1552" d="M106 440v484q0 227 97 334.5t321 107.5h942v-399h-243v108q0 58 -18 79.5t-70 21.5h-185v-371h264v-193h-264v-422h160q72 0 92.5 20t20.5 95v125h243v-430h-942q-217 0 -317.5 103.5t-100.5 336.5zM369 451q0 -134 46 -197.5t154 -63.5h119v986h-113 q-119 0 -162.5 -65.5t-43.5 -211.5v-448z" />
<glyph unicode="&#x153;" horiz-adv-x="1480" d="M90 403v234q0 189 86 288t289 99q100 0 169 -27.5t122 -91.5q51 63 117.5 91t160.5 28q198 0 280.5 -96.5t82.5 -292.5v-180h-525v-86q0 -230 154 -230q64 0 95.5 27.5t31.5 89.5v68h238v-240q-144 -104 -349 -104q-182 0 -286 118q-90 -118 -291 -118q-113 0 -187.5 26 t-115.5 83t-56.5 130.5t-15.5 183.5zM326 379q0 -132 36.5 -186t118.5 -54q84 0 121 54t37 182v14v242q0 124 -37 178.5t-121 54.5q-79 0 -117 -51.5t-38 -185.5v-248zM872 616h291v29q0 106 -32.5 162.5t-108.5 56.5q-150 0 -150 -229v-19z" />
<glyph unicode="&#x178;" horiz-adv-x="1026" d="M27 1200v166h340v-100q0 -43 7 -73.5t27 -80.5l131 -307l125 289q17 39 24 58t14 49.5t7 60.5v104h297v-166q-33 -8 -53 -31t-43 -69l-258 -551v-268q0 -63 12 -85.5t54 -29.5v-166h-396v166q41 7 54.5 31t13.5 84v260l-248 549q-27 55 -51 78.5t-57 31.5zM260 1587 q0 43 29.5 74t70.5 31q44 0 74.5 -31t30.5 -74q0 -42 -30.5 -73t-74.5 -31q-41 0 -70.5 30.5t-29.5 73.5zM586 1587q0 43 30.5 74t73.5 31t74 -31t31 -74q0 -41 -31.5 -72.5t-73.5 -31.5q-43 0 -73.5 30.5t-30.5 73.5z" />
<glyph unicode="&#x2c6;" horiz-adv-x="813" d="M158 1169l174 248h145l178 -248h-157l-92 138l-91 -138h-157z" />
<glyph unicode="&#x2dc;" horiz-adv-x="868" d="M143 1186q11 80 57.5 136t118.5 56q34 0 59.5 -7t72.5 -28q73 -30 98 -30q49 0 67 63h109q-10 -80 -54 -138t-112 -58q-37 0 -64 7.5t-83 31.5q-74 28 -93 28q-50 0 -65 -61h-111z" />
<glyph unicode="&#x2000;" horiz-adv-x="892" />
<glyph unicode="&#x2001;" horiz-adv-x="1784" />
<glyph unicode="&#x2002;" horiz-adv-x="892" />
<glyph unicode="&#x2003;" horiz-adv-x="1784" />
<glyph unicode="&#x2004;" horiz-adv-x="594" />
<glyph unicode="&#x2005;" horiz-adv-x="446" />
<glyph unicode="&#x2006;" horiz-adv-x="297" />
<glyph unicode="&#x2007;" horiz-adv-x="297" />
<glyph unicode="&#x2008;" horiz-adv-x="223" />
<glyph unicode="&#x2009;" horiz-adv-x="356" />
<glyph unicode="&#x200a;" horiz-adv-x="99" />
<glyph unicode="&#x2010;" horiz-adv-x="675" d="M96 422v209h484v-209h-484z" />
<glyph unicode="&#x2011;" horiz-adv-x="675" d="M96 422v209h484v-209h-484z" />
<glyph unicode="&#x2012;" horiz-adv-x="675" d="M96 422v209h484v-209h-484z" />
<glyph unicode="&#x2013;" horiz-adv-x="993" d="M96 422v209h803v-209h-803z" />
<glyph unicode="&#x2014;" horiz-adv-x="2238" d="M96 422v209h2048v-209h-2048z" />
<glyph unicode="&#x2018;" horiz-adv-x="450" d="M102 1118q0 141 172 273l50 -54q-74 -63 -91 -139q55 -6 86 -33t31 -73q0 -51 -33.5 -84t-85.5 -33q-60 0 -94.5 40.5t-34.5 102.5z" />
<glyph unicode="&#x2019;" horiz-adv-x="450" d="M102 1274q0 50 33 83.5t84 33.5q61 0 96 -41.5t35 -102.5q0 -135 -174 -272l-49 51q77 73 90 141q-115 13 -115 107z" />
<glyph unicode="&#x201a;" horiz-adv-x="450" d="M102 113q0 50 33 83t84 33q61 0 96 -41t35 -102q0 -135 -174 -272l-49 51q77 73 90 141q-115 13 -115 107z" />
<glyph unicode="&#x201c;" horiz-adv-x="761" d="M102 1118q0 141 172 273l50 -54q-74 -63 -91 -139q55 -6 86 -33t31 -73q0 -51 -33.5 -84t-85.5 -33q-60 0 -94.5 40.5t-34.5 102.5zM412 1118q0 137 174 273l49 -54q-71 -61 -92 -139q116 -13 116 -106q0 -51 -32 -84t-84 -33q-61 0 -96 40.5t-35 102.5z" />
<glyph unicode="&#x201d;" horiz-adv-x="761" d="M102 1274q0 50 33 83.5t84 33.5q61 0 96 -41.5t35 -102.5q0 -135 -174 -272l-49 51q77 73 90 141q-115 13 -115 107zM414 1274q0 50 32 83.5t84 33.5q61 0 96.5 -41.5t35.5 -102.5q0 -135 -177 -272l-47 51q73 70 90 141q-114 12 -114 107z" />
<glyph unicode="&#x201e;" horiz-adv-x="761" d="M102 113q0 50 33 83t84 33q61 0 96 -41t35 -102q0 -135 -174 -272l-49 51q77 73 90 141q-115 13 -115 107zM414 113q0 50 32 83t84 33q61 0 96.5 -41t35.5 -102q0 -135 -177 -272l-47 51q73 70 90 141q-114 12 -114 107z" />
<glyph unicode="&#x2022;" horiz-adv-x="743" d="M150 696q0 92 65 155.5t158 63.5q92 0 155.5 -63.5t63.5 -155.5q0 -93 -63.5 -158t-155.5 -65t-157.5 65.5t-65.5 157.5z" />
<glyph unicode="&#x2026;" horiz-adv-x="2048" d="M207 115q0 57 38.5 95t94.5 38q55 0 95 -38.5t40 -94.5q0 -55 -40 -94t-95 -39q-56 0 -94.5 39t-38.5 94zM891 115q0 57 38.5 95t94.5 38t94.5 -38t38.5 -95q0 -55 -38.5 -94t-94.5 -39t-94.5 39t-38.5 94zM1573 115q0 57 38.5 95t94.5 38t94.5 -38t38.5 -95 q0 -55 -38.5 -94t-94.5 -39t-94.5 39t-38.5 94z" />
<glyph unicode="&#x202f;" horiz-adv-x="356" />
<glyph unicode="&#x2039;" horiz-adv-x="548" d="M96 520l154 279h166l-154 -279l154 -256h-166z" />
<glyph unicode="&#x203a;" horiz-adv-x="512" d="M96 264l154 256l-154 279h166l154 -279l-154 -256h-166z" />
<glyph unicode="&#x205f;" horiz-adv-x="446" />
<glyph unicode="&#x20ac;" horiz-adv-x="1081" d="M29 541v131h106v102h-106v129h106v47q0 107 22.5 185.5t73 137.5t138.5 88.5t213 29.5q247 0 426 -131v-340h-217v167q0 52 -49 82.5t-134 30.5q-122 0 -165.5 -61.5t-43.5 -194.5v-41h283v-129h-283v-102h283v-131h-283v-115q0 -77 13.5 -128t42 -79.5t66 -39.5 t91.5 -11q74 0 127.5 34t53.5 95v180h217v-375q-94 -69 -190 -99t-230 -30q-237 0 -346 106.5t-109 334.5v127h-106z" />
<glyph unicode="&#x2122;" horiz-adv-x="1404" d="M43 1106v260h553v-260h-113v90q0 33 -12 47t-43 14h-31v-421q0 -25 7 -36t30 -18v-98h-227v98q23 7 30 18t7 36v421h-31q-28 0 -41.5 -13.5t-13.5 -49.5v-88h-115zM641 684v98q20 4 26.5 14.5t6.5 37.5v380q0 26 -7 37.5t-26 14.5v100h233l89 -311q18 -71 20 -92h6 q0 2 23 90l92 313h221v-100q-20 -3 -26.5 -13.5t-6.5 -38.5v-380q0 -27 6.5 -37.5t26.5 -14.5v-98h-205v98q19 4 24 14t5 38v325h-4q-17 -91 -31 -137l-98 -338h-90l-99 348q-15 48 -30 127h-4v-325q0 -27 5 -37.5t23 -14.5v-98h-180z" />
<glyph unicode="&#x25fc;" horiz-adv-x="1005" d="M0 0v1005h1005v-1005h-1005z" />
</font>
</defs>
</svg>
